Welcome Guest ( Log In | Register )

> Releases Upload / Добавление релизов

Добавить релиз тут / Click here to add release
Рекомендованные обменники / Recommended file shares

> Abhcan - The Pit (2020), Progressive Metal
post May 22 2020, 07:09:16
Post #1

Правь статус, ####!111
**************
Group: Металариец
Posts: 6,493
Releases: 5984
From: Lithuania
On Forums: 13 years 7 months
Thanks: 44784 time(s)
Lithuania


(IMG:https://metalarea.org/images/audiocovers/2020_May/acov_tid337937_thumb.jpg)

*Artist: Abhcan
*Album: The Pit
*Year: 2020
*Genre: Progressive Metal
*Country: France (IMG:https://metalarea.org/forum/style_images/flags/France.png)
*Format: mp3@CBR320kbps
*Size: 107MB

Tracklist:
1. Into The Pit 01:29
2. Time’s Up 05:12
3. The Pit 07:56
4. Substitute Reality 05:44
5. Mother 02:05
6. Sex It Up 05:08
7. Redemption (Part III) 06:14
8. Reflection Circus 08:14
9. Woman (Bonus Track) 04:46
******************************
Total playing time: 46:48


(IMG:https://metalarea.org/images/youtube.png)

Technical info
(IMG:https://metalarea.org/images/spectrogram/2020_May/749d23b537fbcf3dfb6dca64c2365a0e.png)
Input File: 02 - Time\'s Up.mp3
Channels : 2
Sample Rate : 44100
Precision : 16-bit
Duration : 00:05:12.58 = 13784558 samples = 23443.1 CDDA sectors
File Size : 12.5M
Bit Rate : 321k
Sample Encoding: MPEG audio (layer I, II or III)
Comments :
Title=Time's Up
Artist=Abhcan
Album=The Pit
Tracknumber=02
Year=2020
Genre=Metal
Discnumber=1



Register


Go to the top of the page
  Insert nick Quick quote
+Quote Post
 
Start new topic
Replies (1 - 1)
post May 22 2020, 19:56:14
Post #2

hearer & reader
**************
Group: Металариец
Posts: 8,695
Releases: 140
From: Moscow
On Forums: 12 years 8 months
Thanks: 8710 time(s)
Russian Federation



Икстрим+авангард+женский вокал. Как-то не очень.


Thanks:
Go to the top of the page
  Insert nick Quick quote
+Quote Post

Reply to this topicStart new topic
2 User(s) are reading this topic (2 Guests and 0 Anonymous Users)
0 Members:

 



- Lo-Fi Version Support form
Copyrights and abuse reports form
Time is now: 28th May 2020 - 14:16:15