Welcome Guest ( Log In | Register )

 
Reply to this topicStart new topic
> Jumalhauta - Kuolinvirsi [ep] (2019), Black/Death/Doom Metal
post May 22 2020, 07:42:11
Post #1

Правь статус, ####!111
**************
Group: Металариец
Posts: 6,492
Releases: 5984
From: Lithuania
On Forums: 13 years 7 months
Thanks: 44761 time(s)
Lithuania


(IMG:https://metalarea.org/images/audiocovers/2020_May/acov_tid337938_thumb.jpg)

*Artist: Jumalhauta
*Album: Kuolinvirsi [ep]
*Year: 2019
*Genre: Black/Death/Doom Metal
*Country: Finland (IMG:https://metalarea.org/forum/style_images/flags/Finland.png)
*Format: mp3@CBR128kbps (IMG:https://metalarea.org/images/bit_low.gif)
*Size: 25MB

Tracklist:
1. Ihtiriekko 03:56
2. Kalmankalpeat 04:08
3. Haudan kansi 04:36
4. Ievan Polkka (Loituma cover) 03:34
5. Tuonen kuoro 04:46
6. Suru 05:43
******************************
Total playing time: 26:43


(IMG:https://metalarea.org/images/youtube.png)

Technical info
(IMG:https://metalarea.org/images/spectrogram/2020_May/8ee95e12056e0ed13a588e7a329df8fc.png)
Input File: 02. Kalmankalpeat.mp3
Channels : 2
Sample Rate : 44100
Precision : 16-bit
Duration : 00:04:08.56 = 10961496 samples = 18642 CDDA sectors
File Size : 3.98M
Bit Rate : 128k
Sample Encoding: MPEG audio (layer I, II or III)
Comments :
Title=Kalmankalpeat
Artist=Jumalhauta
Album=Kuolinvirsi
Tracknumber=2
Year=2019
Genre=9



Register


Go to the top of the page
  Insert nick Quick quote
+Quote Post

Reply to this topicStart new topic
1 User(s) are reading this topic (1 Guests and 0 Anonymous Users)
0 Members:

 



- Lo-Fi Version Support form
Copyrights and abuse reports form
Time is now: 25th May 2020 - 03:59:17