Welcome Guest ( Log In | Register )

> Releases Upload / Добавление релизов

Добавить релиз тут / Click here to add release
Рекомендованные обменники / Recommended file shares

 
Reply to this topicStart new topic
> Commando - Rites Of Damnation [ep] (2020), Heavy Metal (D4)
post May 22 2020, 08:54:51
Post #1

Правь статус, ####!111
**************
Group: Металариец
Posts: 2,786
Releases: 2489
From: Одесса
On Forums: 11 years 11 months
Thanks: 23616 time(s)
Ukraine


(IMG:http://metalarea.org/images/audiocovers/2020_May/acov_tid337940_thumb.jpg)

*Artist: Commando
*Album: Rites Of Damnation [ep]
*Year: 2020
*Genre: Heavy Metal
*Country: Sweden (IMG:http://metalarea.org/forum/style_images/flags/Sweden.png)
*Format: mp3@CBR320kbps
*Size: 54MB

Tracklist:
1. The Sacrament 04:49
2. Final Judgment 02:59
3. Slumbering Death 02:57
4. Djävulsmaskopi 05:27
5. Sinner's Soul 04:46
6. Burn the Sky 03:31
******************************
Total playing time: 24:29



Extended info
Line - up:

Eric - Bass
Aron - Drums (ex-Wendorizer)
Felix - Guitars
Robin - Vocals, Guitars (ex-Wendorizer)



(IMG:https://f4.bcbits.com/img/0019255299_10.jpg)


Technical info
(IMG:http://metalarea.org/images/spectrogram/2020_May/4d672c527a503629c20549c5cb1540c4.png)
Input File: 04. Djävulsmaskopi.mp3
Channels : 2
Sample Rate : 44100
Precision : 16-bit
Duration : 00:05:27.15 = 14427403 samples = 24536.4 CDDA sectors
File Size : 13.1M
Bit Rate : 320k
Sample Encoding: MPEG audio (layer I, II or III)
Comments :
Title=Djävulsmaskopi
Artist=Commando
Album=Rites of Damnation (EP)
Tracknumber=04
Year=2020
Genre=137



Register


Go to the top of the page
  Insert nick Quick quote
+Quote Post

Reply to this topicStart new topic
2 User(s) are reading this topic (2 Guests and 0 Anonymous Users)
0 Members:

 



- Lo-Fi Version Support form
Copyrights and abuse reports form
Time is now: 28th May 2020 - 19:00:17