Welcome Guest ( Log In | Register )

> Releases Upload / Добавление релизов

Добавить релиз тут / Click here to add release
Рекомендованные обменники / Recommended file shares

> Master Massive - Black Feathers On Their Graves [ep] (2020), Heavy Metal
post May 22 2020, 09:02:41
Post #1

Правь статус, ####!111
**************
Group: Металариец
Posts: 2,768
Releases: 2472
From: Одесса
On Forums: 11 years 11 months
Thanks: 23454 time(s)
Ukraine


(IMG:http://metalarea.org/images/audiocovers/2020_May/acov_tid337941_thumb.jpg)

*Artist: Master Massive
*Album: Black Feathers On Their Graves [ep]
*Year: 2020
*Genre: Heavy Metal
*Country: Sweden (IMG:http://metalarea.org/forum/style_images/flags/Sweden.png)
*Format: mp3@CBR320kbps
*Size: 80MB

Tracklist:
1. Black Feathers on Their Graves
2. Pictures in the Sand
3. Castles in the Air
******************************
Total playing time: 33:13

Extended info
Line - up:

Max Warnby - Bass (Pomperipossa, Seedna, Speglas, ex-Tantara, ex-Katabatikos)
Fred Warnby - Drums
Anders Ericson Kragh - Guitars (Sectu, ex-Beyond Twilight, ex-Sobre Nocturne, Argento [Swe])
Yngve Frank - Guitars (rhythm) (Fortified, ex-Zanity, ex-Mean Streak)
Jan Strandh - Guitars (acoustic, lead, rhythm), Vocals (ex-Akt, ex-Peterson, ex-Zanity, ex-Twilight, ex-Verdict, ex-Sobre Nocturne, ex-Notre Dame)
Max Warnby - Bass
Johan Björkman - Drums (Fortified, Seedna)
Per-Mårten Hellberg - Organ
Marcus Johansson - Vocals)


Technical info
(IMG:http://metalarea.org/images/spectrogram/2020_May/60f54ebb3085bf4c91cc31ab0d74d441.png)
Input File: 1 - Black Feathers on Their Graves.mp3
Channels : 2
Sample Rate : 44100
Precision : 16-bit
Duration : 00:18:11.59 = 48139119 samples = 81869.2 CDDA sectors
File Size : 43.7M
Bit Rate : 321k
Sample Encoding: MPEG audio (layer I, II or III)
Comments :
Title=Black Feathers on Their Graves
Artist=Master Massive
Album=Black Feathers on Their Graves (EP)
Tracknumber=1
Year=2020
Genre=137



Register


Go to the top of the page
  Insert nick Quick quote
+Quote Post
 
Start new topic
Replies (1 - 2)
post May 22 2020, 18:42:59
Post #2

Два Литра
**
Group: Завсегдатай
Posts: 136
Releases: 1
On Forums: 13 years 7 months
Thanks: 67 time(s)
Russian Federation


Marcus Karlsson Vocals
Go to the top of the page
  Insert nick Quick quote
+Quote Post
post May 22 2020, 19:42:50
Post #3

hearer & reader
**************
Group: Металариец
Posts: 8,687
Releases: 140
From: Moscow
On Forums: 12 years 8 months
Thanks: 8688 time(s)
Russian Federation


Превью и гугл придумали дураки.
Bandcamp - https://vicisolumrecords.com/album/black-fe...on-their-graves

Утомляют и пиликание, и Баранссон.
Go to the top of the page
  Insert nick Quick quote
+Quote Post

Reply to this topicStart new topic
1 User(s) are reading this topic (1 Guests and 0 Anonymous Users)
0 Members:

 



- Lo-Fi Version Support form
Copyrights and abuse reports form
Time is now: 25th May 2020 - 02:26:14