Welcome Guest ( Log In | Register )

> Releases Upload / Добавление релизов

Добавить релиз тут / Click here to add release
Рекомендованные обменники / Recommended file shares

> Overground - Cosmic Shield Revival (2013), Technical Death Metal
post May 22 2020, 09:26:50
Post #1

Правь статус, ####!111
**************
Group: Металариец
Posts: 6,493
Releases: 5984
From: Lithuania
On Forums: 13 years 7 months
Thanks: 44782 time(s)
Lithuania


(IMG:https://metalarea.org/images/audiocovers/2020_May/acov_tid337942_thumb.jpg)

*Artist: Overground
*Album: Cosmic Shield Revival
*Year: 2013
*Genre: Technical Death Metal
*Country: Venezuela (IMG:https://metalarea.org/forum/style_images/flags/Venezuela.png)
*Format: mp3@CBR320kbps
*Size: 125MB

Tracklist:
1. Kernlose Winter 01:59
2. Erebus 04:47
3. Effigy of Delirium 04:34
4. Gabrielle 07:18
5. Whispers for the Gravedigger 05:07
6. Hibernal City 05:09
7. Las huellas del Maestro 05:07
8. Antarctica 04:47
9. Super Nova 05:36
10. Por Elena 03:00
11. Cosmic Aegis over the Ground 07:13
******************************
Total playing time: 54:37


(IMG:https://metalarea.org/images/youtube.png)

Technical info
(IMG:https://metalarea.org/images/spectrogram/2020_May/42abe3f4196bda22a5677bab381d261d.png)
Input File: 02 Erebus.mp3
Channels : 2
Sample Rate : 44100
Precision : 16-bit
Duration : 00:04:49.52 = 12767964 samples = 21714.2 CDDA sectors
File Size : 11.6M
Bit Rate : 320k
Sample Encoding: MPEG audio (layer I, II or III)
Comments :
Artist=Overground
Album=Cosmic Shield Revival
Year=2013
Genre=9



Register


Go to the top of the page
  Insert nick Quick quote
+Quote Post
 
Start new topic
Replies (1 - 1)
post May 22 2020, 19:40:29
Post #2

hearer & reader
**************
Group: Металариец
Posts: 8,695
Releases: 140
From: Moscow
On Forums: 12 years 8 months
Thanks: 8710 time(s)
Russian Federation



Не без трэша. Пока не чирикает, даже слушать можно. Очень даже можно.
Go to the top of the page
  Insert nick Quick quote
+Quote Post

Reply to this topicStart new topic
2 User(s) are reading this topic (2 Guests and 0 Anonymous Users)
0 Members:

 



- Lo-Fi Version Support form
Copyrights and abuse reports form
Time is now: 28th May 2020 - 12:52:11