Welcome Guest ( Log In | Register )

> Releases Upload / Добавление релизов

Добавить релиз тут / Click here to add release
Рекомендованные обменники / Recommended file shares

 
Reply to this topicStart new topic
> Overground - The Crow Breeder [ep] (2016), Technical/Progressive Death Metal
post May 22 2020, 09:31:17
Post #1

Правь статус, ####!111
**************
Group: Металариец
Posts: 6,492
Releases: 5984
From: Lithuania
On Forums: 13 years 7 months
Thanks: 44761 time(s)
Lithuania


(IMG:https://metalarea.org/images/audiocovers/2020_May/acov_tid337943_thumb.jpg)

*Artist: Overground
*Album: The Crow Breeder [ep]
*Year: 2016
*Genre: Technical/Progressive Death Metal
*Country: Venezuela (IMG:https://metalarea.org/forum/style_images/flags/Venezuela.png)
*Format: mp3@CBR320kbps
*Size: 61MB

Tracklist:
1. The Crow Breeder
2. Sacrifice
3. Cosmic Aegis Over The Ground
4. Centric Flow (Obscura Cover)
******************************
Total playing time: 26:14


(IMG:https://metalarea.org/images/youtube.png)

Technical info
(IMG:https://metalarea.org/images/spectrogram/2020_May/eb92db1e937cddba464677a55d2c4d84.png)
Input File: 01 - The Crow Breeder.mp3
Channels : 2
Sample Rate : 44100
Precision : 16-bit
Duration : 00:05:22.89 = 14239625 samples = 24217 CDDA sectors
File Size : 13.1M
Bit Rate : 324k
Sample Encoding: MPEG audio (layer I, II or III)
Comments :
Title=The Crow Breeder
Artist=Overground
Album=The Crow Breeder
Tracknumber=01/04
Year=2016
Genre=Technical / Progressive Death Metal



Register


Go to the top of the page
  Insert nick Quick quote
+Quote Post

Reply to this topicStart new topic
1 User(s) are reading this topic (1 Guests and 0 Anonymous Users)
0 Members:

 



- Lo-Fi Version Support form
Copyrights and abuse reports form
Time is now: 25th May 2020 - 02:34:59