Welcome Guest ( Log In | Register )

> Releases Upload / Добавление релизов

Добавить релиз тут / Click here to add release
Рекомендованные обменники / Recommended file shares

> Basement Torture Killings - Lessons In Murder (2020), Death Metal/Grindcore (D4)
post May 22 2020, 09:57:41
Post #1

Правь статус, ####!111
**************
Group: Металариец
Posts: 21,875
Releases: 15083
From: Г.Харьков
On Forums: 8 years 2 weeks
Thanks: 273347 time(s)
Unknown


(IMG:https://metalarea.org/images/audiocovers/2020_May/acov_tid337948_thumb.jpg)

*Artist: Basement Torture Killings
*Album: Lessons In Murder
*Year: 2020
*Genre: Death Metal/Grindcore
*Country: United Kingdom (IMG:https://metalarea.org/forum/style_images/flags/United%20Kingdom.png)
*Format: mp3@CBR320kbps
*Size: 86MB

Tracklist:
1. Armchair Psycho 02:10
2. Three Step 04:05
3. DIY Murder Kit 01:55
4. Exercising Your Dominance 03:01
5. Erotophonophilia 04:04
6. Public Displays of Aggression 02:12
7. Psychoflage 03:32
8. Resolving the Body Problem 03:26
9. The Pen 03:00
10. Objectification 03:32
11. The League of Extraordinary Killers 02:43
******************************
Total playing time: 33:40




Extended info
Tarquin Guitars, Vocals (2007-present)
See also: Thus Defiled, ex-Reign of Erebus, ex-Fleshrot, ex-Sacrament
Faceless Killer Drums (2014-present)
See also: Anakim, Guerrilla, Sentenced to Suffer, ex-Trifixion, ex-In Fire Baptised, ex-Zebadiah Crowe (live), ex-Black Skies Burn (live), ex-Abgott, ex-Eye of Solitude (live), ex-Viscera
Beryl Vocals (2015-present)
See also: ex-Craniation, ex-Human Harvest, ex-Genocidal, ex-Terrorform
Keiran Allen Bass (2018-present)
See also: ex-Amputated, ex-Anoxide, ex-Bloodshot Dawn, ex-Crepitation (live)


Technical info
(IMG:https://metalarea.org/images/spectrogram/2020_May/6fb12af4e1dbf453b585ba78bb4151cf.png)
Input File: 05. Erotophonophilia (Lust Murder).mp3
Channels : 2
Sample Rate : 44100
Precision : 16-bit
Duration : 00:04:04.29 = 10773057 samples = 18321.5 CDDA sectors
File Size : 10.7M
Bit Rate : 349k
Sample Encoding: MPEG audio (layer I, II or III)
Comments :
Title=Erotophonophilia (Lust Murder)
Artist=Basement Torture Killings
Album=Lessons in Murder
Tracknumber=5
Year=2020



Register


Go to the top of the page
  Insert nick Quick quote
+Quote Post
 
Start new topic
Replies (1 - 1)
post May 23 2020, 08:12:03
Post #2

Шесть Литров
******
Group: Металариец
Posts: 593
Releases: 0
From: APATIN, SERBIA, АПАТИН, СЕРБИЯ
On Forums: 12 years 7 months
Thanks: 905 time(s)



Flac

Register


Thanks:
(1) Olethros,
Go to the top of the page
  Insert nick Quick quote
+Quote Post

Reply to this topicStart new topic
2 User(s) are reading this topic (2 Guests and 0 Anonymous Users)
0 Members:

 



- Lo-Fi Version Support form
Copyrights and abuse reports form
Time is now: 28th May 2020 - 19:41:02