Welcome Guest ( Log In | Register )

> Releases Upload / Добавление релизов

Добавить релиз тут / Click here to add release
Рекомендованные обменники / Recommended file shares

 
Reply to this topicStart new topic
> Astral Sleep - Astral Doom Musick (2020), Psychedelic Doom Metal (D6)
post May 22 2020, 10:14:21
Post #1

Правь статус, ####!111
**************
Group: Металариец
Posts: 21,875
Releases: 15079
From: Г.Харьков
On Forums: 8 years 2 weeks
Thanks: 273340 time(s)
Unknown


(IMG:https://metalarea.org/images/audiocovers/2020_May/acov_tid337949_thumb.jpg)

*Artist: Astral Sleep
*Album: Astral Doom Musick
*Year: 2020
*Genre: Psychedelic Doom Metal
*Country: Finland (IMG:https://metalarea.org/forum/style_images/flags/Finland.png)
*Format: mp3@CBR320kbps
*Size: 101MB

Tracklist:
1. Vril 11:14
2. Integratron 11:13
3. Schwerbelastungskörper 09:32
4. Aurinko ja kuu 11:14
******************************
Total playing time: 43:13




Extended info
Jaakko Oksanen Bass (2004-present)
See also: Reveries End, Sightless, Division of the Spoils, ex-Mystic Opera
Rolle Heinonen Guitars (2004-present)
See also: ex-Eternity
Markus Heinonen Vocals, Guitars (2004-present)
See also: Chaotic Sanity, Church of the Dead, Kausalgia, Night of Suicide, Seer of Ages, Division of the Spoils, ex-Fistful, ex-Hypotermia, Retaliation's Hammer, ex-Satan's Fall, ex-Stone Ship
Jiri Pyörälä Drums (2007-present)



Technical info
(IMG:https://metalarea.org/images/spectrogram/2020_May/ec725779a8d407afe8e73233ad84dce5.png)
Input File: 02 - Integratron.mp3
Channels : 2
Sample Rate : 44100
Precision : 16-bit
Duration : 00:11:12.77 = 29669201 samples = 50457.8 CDDA sectors
File Size : 27.2M
Bit Rate : 324k
Sample Encoding: MPEG audio (layer I, II or III)
Comments :
Title=Integratron
Artist=Astral Sleep
Album=Astral Doom Musick
Tracknumber=2
Year=2020



Register


Go to the top of the page
  Insert nick Quick quote
+Quote Post

Reply to this topicStart new topic
2 User(s) are reading this topic (2 Guests and 0 Anonymous Users)
0 Members:

 



- Lo-Fi Version Support form
Copyrights and abuse reports form
Time is now: 28th May 2020 - 18:55:16