Welcome Guest ( Log In | Register )

> Releases Upload / Добавление релизов

Добавить релиз тут / Click here to add release
Рекомендованные обменники / Recommended file shares

> Árstíðir Lífsins - Saga Á Tveim Tungum Ii: Eigi Fjǫll Né Firðir (2020), Folk Black Metal
post May 22 2020, 10:26:15
Post #1

Четыре Литра
****
Group: Металариец
Posts: 348
Releases: 202
On Forums: 7 years 8 months
Thanks: 5252 time(s)
Unknown


(IMG:http://metalarea.org/images/audiocovers/2020_May/acov_tid337950_thumb.jpg)

*Artist: Árstíðir Lífsins
*Album: Saga Á Tveim Tungum Ii: Eigi Fjǫll Né Firðir
*Year: 2020
*Genre: Folk Black Metal
*Country: International (IMG:http://metalarea.org/forum/style_images/flags/International.png)
*Format: mp3@CBR320kbps
*Size: 172MB

Tracklist:
1. Ek býð þik velkominn 06:10
2. Bróðir, var þat þín hǫnd 03:52
3. Sem járnklær nætr dragask nærri 10:09
4. Gamalt ríki faðmar þá grænu ok svǫrtu hringi lífs ok aldrslita 07:59
5. Um nætr reika skepnr 05:54
6. Heiftum skal mána kveðja 05:30
7. Er hin gullna stjarna skýjar slóðar rennr rauð 08:42
8. nóttu, mér dreymir þursa þjóðar sjǫt brennandi 08:19
9. Ek sá halr at Hóars veðri hǫsvan serk Hrísgrísnis bar 17:40
******************************
Total playing time: 1:14:15



Extended info
Personal purchase


Technical info
(IMG:http://metalarea.org/images/spectrogram/2020_May/3e34586c1a016442c691c76b25bf6bf7.png)
Input File: Árstíðir lífsins - Saga á tveim tungum II- Eigi fjǫll né firðir - 01 Ek býð þik velkominn.mp3
Channels : 2
Sample Rate : 44100
Precision : 16-bit
Duration : 00:06:10.25 = 16328157 samples = 27769 CDDA sectors
File Size : 15.0M
Bit Rate : 324k
Sample Encoding: MPEG audio (layer I, II or III)
Comments :
Title=Ek býð þik velkominn
Artist=Árstíðir lífsins
Album=Saga á tveim tungum II: Eigi fjǫll né firðir
Tracknumber=1
Year=2020



Register


Go to the top of the page
  Insert nick Quick quote
+Quote Post
 
Start new topic
Replies (1 - 5)
post May 22 2020, 17:59:56
Post #2

Четыре Литра
****
Group: Металариец
Posts: 348
Releases: 202
On Forums: 7 years 8 months
Thanks: 5252 time(s)
Unknown


FLAC 457Mb
Register


Go to the top of the page
  Insert nick Quick quote
+Quote Post
post May 23 2020, 09:45:42
Post #3

Два Литра
**
Group: Завсегдатай
Posts: 106
Releases: 0
On Forums: 10 years 5 months
Thanks: 16 time(s)
Russian Federation


Здорово, только треки 1,2,5,8 лишние. В итоге альбом 43 мин, что для них маловато.
Go to the top of the page
  Insert nick Quick quote
+Quote Post
post May 23 2020, 09:46:56
Post #4

Пусто
***********
Group: Металариец
Posts: 1,669
Releases: 27
From: Санкт-Петербург
On Forums: 13 years 4 months
Thanks: 1539 time(s)
Russian Federation


ЦИТАТА(igore2911 @ May 23 2020, 11:45:42) *
Здорово, только треки 1,2,5,8 лишние.


Первый трек - превосходный (IMG:style_emoticons/default/23.gif)
Go to the top of the page
  Insert nick Quick quote
+Quote Post
post May 23 2020, 10:03:48
Post #5

Два Литра
**
Group: Завсегдатай
Posts: 106
Releases: 0
On Forums: 10 years 5 months
Thanks: 16 time(s)
Russian Federation


Ну 1,2 intro после intro как-то чересчур.
Go to the top of the page
  Insert nick Quick quote
+Quote Post
post May 23 2020, 10:05:29
Post #6

Пусто
***********
Group: Металариец
Posts: 1,669
Releases: 27
From: Санкт-Петербург
On Forums: 13 years 4 months
Thanks: 1539 time(s)
Russian Federation


ЦИТАТА(igore2911 @ May 23 2020, 12:03:48) *
Ну 1,2 intro после intro как-то чересчур.


ну, со вторым я согласен - перебор. хотелось бы после первого трека уже раскачку
Go to the top of the page
  Insert nick Quick quote
+Quote Post

Reply to this topicStart new topic
2 User(s) are reading this topic (2 Guests and 0 Anonymous Users)
0 Members:

 



- Lo-Fi Version Support form
Copyrights and abuse reports form
Time is now: 28th May 2020 - 12:59:33