Welcome Guest ( Log In | Register )

> Releases Upload / Добавление релизов

Добавить релиз тут / Click here to add release
Рекомендованные обменники / Recommended file shares

 
Reply to this topicStart new topic
> Erasy - Some Nice Flowers (2020), Sludge/Stoner/Doom Metal
post May 22 2020, 10:32:16
Post #1

Правь статус, ####!111
**************
Group: Металариец
Posts: 21,845
Releases: 15058
From: Г.Харьков
On Forums: 8 years 2 weeks
Thanks: 272807 time(s)
Unknown


(IMG:https://metalarea.org/images/audiocovers/2020_May/acov_tid337951_thumb.jpg)

*Artist: Erasy
*Album: Some Nice Flowers
*Year: 2020
*Genre: Sludge/Stoner/Doom Metal
*Country: Brazil (IMG:https://metalarea.org/forum/style_images/flags/Brazil.png)
*Format: mp3@CBR320kbps
*Size: 126MB

Tracklist:
1. A Motivational Message 07:51
2. The Truth Is Everywhere 05:32
3. Memento Mori 06:57
4. Some Nice Flowers 03:42
5. A Look into Emptiness 08:55
6. Wisdom Comes from the Ashes 07:02
7. Under the Moonlight 07:18
8. The Deal 07:26
******************************
Total playing time: 54:43




Extended info
Joilson Santos Bass
Léo Carvalho Guitars
Vurmun Drums (2012, 2017-present)
See also: Aztlán, In the Mystic Fog, Martyrdom, Pestis, Heretic Execution (live), ex-Ceremonial Baptism, ex-INRI Apostasia, Império do Caos
Luciano Penelu Vocals (2014-2015, 2017-present)


Technical info
(IMG:https://metalarea.org/images/spectrogram/2020_May/e7ec776baddd5ea6aac52f31b25b1faa.png)
Input File: 03 - Memento Mori.mp3
Channels : 2
Sample Rate : 44100
Precision : 16-bit
Duration : 00:06:57.41 = 18407781 samples = 31305.8 CDDA sectors
File Size : 16.9M
Bit Rate : 323k
Sample Encoding: MPEG audio (layer I, II or III)
Comments :
Title=Memento Mori
Artist=Erasy
Album=Some Nice Flowers
Tracknumber=3
Year=2020



Register


Go to the top of the page
  Insert nick Quick quote
+Quote Post

Reply to this topicStart new topic
1 User(s) are reading this topic (1 Guests and 0 Anonymous Users)
0 Members:

 



- Lo-Fi Version Support form
Copyrights and abuse reports form
Time is now: 25th May 2020 - 02:42:22