Welcome Guest ( Log In | Register )

> Releases Upload / Добавление релизов

Добавить релиз тут / Click here to add release
Рекомендованные обменники / Recommended file shares

> Lascar - Distant Imaginary Oceans (2020), Atmospheric Black Metal (D)
post May 22 2020, 10:46:59
Post #1

Маньяк
**********
Group: Металариец
Posts: 1,114
Releases: 940
From: Новороссийск
On Forums: 9 years 1 month
Thanks: 17796 time(s)
Russian Federation


(IMG:https://metalarea.org/images/audiocovers/2020_May/acov_tid337952_thumb.jpg)

*Artist: Lascar
*Album: Distant Imaginary Oceans
*Year: 2020
*Genre: Atmospheric Black Metal
*Country: Chile (IMG:https://metalarea.org/forum/style_images/flags/Chile.png)
*Format: mp3@CBR320kbps
*Size: 100MB

Tracklist:
01. Atlantic Tainted Gloom 08:00
02. Novelization 06:24
03. The Lights On The Ocean 07:11
04. Destined To Saturn 07:24
05. Incorporeal Water Latency 07:49
06. Ode To The Sea 06:53
******************************
Total playing time: 43:43



Technical info
(IMG:https://metalarea.org/images/spectrogram/2020_May/bec368924e2c629a24b0058a31bb45c8.png)
Input File: 01. Atlantic Tainted Gloom.mp3
Channels : 2
Sample Rate : 44100
Precision : 16-bit
Duration : 00:08:01.15 = 21218803 samples = 36086.4 CDDA sectors
File Size : 19.2M
Bit Rate : 320k
Sample Encoding: MPEG audio (layer I, II or III)
Comments :
Title=Atlantic Tainted Gloom
Artist=Lascar
Album=Distant Imaginary Oceans
Tracknumber=01
Year=2020
Genre=Black Metal



Register


Go to the top of the page
  Insert nick Quick quote
+Quote Post
 
Start new topic
Replies (1 - 1)
post May 23 2020, 17:18:33
Post #2

Два Литра
**
Group: Завсегдатай
Posts: 113
Releases: 0
On Forums: 3 years 3 weeks
Thanks: 70 time(s)
Zimbabwe


ЦИТАТА(demenn @ May 22 2020, 13:46:59) *
*Genre: Atmospheric Black Metal

Post- ?
Go to the top of the page
  Insert nick Quick quote
+Quote Post

Reply to this topicStart new topic
2 User(s) are reading this topic (2 Guests and 0 Anonymous Users)
0 Members:

 



- Lo-Fi Version Support form
Copyrights and abuse reports form
Time is now: 28th May 2020 - 19:21:00