Welcome Guest ( Log In | Register )

> Releases Upload / Добавление релизов

Добавить релиз тут / Click here to add release
Рекомендованные обменники / Recommended file shares

> Maniac Thrash Metal - Vision Of Hell (2019), Old School Thrash Metal
post May 22 2020, 11:05:06
Post #1

Правь статус, ####!111
**************
Group: Металариец
Posts: 21,875
Releases: 15079
From: Г.Харьков
On Forums: 8 years 2 weeks
Thanks: 273324 time(s)
Unknown


(IMG:https://metalarea.org/images/audiocovers/2020_May/acov_tid337953_thumb.jpg)

*Artist: Maniac Thrash Metal
*Album: Vision Of Hell
*Year: 2019
*Genre: Old School Thrash Metal
*Country: Colombia (IMG:https://metalarea.org/forum/style_images/flags/Colombia.png)
*Format: mp3@CBR320kbps
*Size: 94MB

Tracklist:
1. Human Manikin 04:26
2. Eternal War 05:34
3. Maniac (Instrumental) 04:20
4. Slavery By Inheritance 05:06
5. Russian Atomik Rain 05:14
6. Ritual 05:02
7. Judgment Day 04:34
8. Vision Of Hell 05:21
******************************
Total playing time: 39:37



Extended info
ANDRES GALLAGHER (VOCALS AND LEAD GUITAR)
ANDRÉS ROJAS (BASS)
GABRIEL LOZADA (RHYTHM GUITAR)
SEBASTIAN FAJARDO (DRUMS)



Technical info
(IMG:https://metalarea.org/images/spectrogram/2020_May/7fd4a166b343b32c46ff67757885792c.png)
Input File: 04 Slavery By Inheritance.mp3
Channels : 2
Sample Rate : 44100
Precision : 16-bit
Duration : 00:05:07.06 = 13541346 samples = 23029.5 CDDA sectors
File Size : 12.7M
Bit Rate : 330k
Sample Encoding: MPEG audio (layer I, II or III)
Comments :
Title=Slavery By Inheritance
Artist=Maniac Thrash Metal
Album=VISION OF HELL
Tracknumber=4/8
Year=2020-20-20
Genre=Rock
Discnumber=1/1



Register


Go to the top of the page
  Insert nick Quick quote
+Quote Post
 
Start new topic
Replies (1 - 1)
post May 24 2020, 12:25:52
Post #2

Восемь Литров
********
Group: Металариец
Posts: 808
Releases: 0
From: South Of Heaven
On Forums: 12 years 9 months
Thanks: 368 time(s)
Ukraine


Классно колумбийцы играют,молодцы! (IMG:style_emoticons/default/metaler.gif) Только что-то со сведением или записью "не алё" и портит впечатление...
Релизёру спс! (IMG:style_emoticons/default/9.gif)
Go to the top of the page
  Insert nick Quick quote
+Quote Post

Reply to this topicStart new topic
2 User(s) are reading this topic (2 Guests and 0 Anonymous Users)
0 Members:

 



- Lo-Fi Version Support form
Copyrights and abuse reports form
Time is now: 28th May 2020 - 18:20:30