Welcome Guest ( Log In | Register )

> Releases Upload / Добавление релизов

Добавить релиз тут / Click here to add release
Рекомендованные обменники / Recommended file shares

 
Reply to this topicStart new topic
> Zatyr - Ornament Of Proposition [ep] (2020), Heavy Metal
post May 22 2020, 11:36:50
Post #1

Правь статус, ####!111
**************
Group: Металариец
Posts: 21,866
Releases: 15074
From: Г.Харьков
On Forums: 8 years 2 weeks
Thanks: 273181 time(s)
Unknown


(IMG:https://metalarea.org/images/audiocovers/2020_May/acov_tid337954_thumb.jpg)

*Artist: Zatyr
*Album: Ornament Of Proposition [ep]
*Year: 2020
*Genre: Heavy Metal
*Country: Sweden (IMG:https://metalarea.org/forum/style_images/flags/Sweden.png)
*Format: mp3@CBR320kbps
*Size: 43MB

Tracklist:
1. Forbidden Rites 04:43
2. Fire Prophecy 05:14
3. I Hear Her Calling 03:59
4. Heart & Vision 04:02
******************************
Total playing time: 17:58




Extended info
Hermes Von Hasselhuhn Bass
Zlim Knoxx Drums
Van Wohlen Guitars
Set Vocals



Technical info
(IMG:https://metalarea.org/images/spectrogram/2020_May/ec31fb3b0b28613c3cf7b0a1ff0eefbc.png)
Input File: 02 Fire Prophecy.mp3
Channels : 2
Sample Rate : 44100
Precision : 16-bit
Duration : 00:05:14.66 = 13876594 samples = 23599.6 CDDA sectors
File Size : 13.0M
Bit Rate : 330k
Sample Encoding: MPEG audio (layer I, II or III)
Comments :
Title=Fire Prophecy
Artist=Zatyr
Album=Ornament of Proposition
Tracknumber=2/4
Year=2020-20-20
Genre=Metal
Discnumber=1/1



Register


Go to the top of the page
  Insert nick Quick quote
+Quote Post

Reply to this topicStart new topic
2 User(s) are reading this topic (2 Guests and 0 Anonymous Users)
0 Members:

 



- Lo-Fi Version Support form
Copyrights and abuse reports form
Time is now: 28th May 2020 - 13:24:06