Welcome Guest ( Log In | Register )

> Releases Upload / Добавление релизов

Добавить релиз тут / Click here to add release
Рекомендованные обменники / Recommended file shares

> Chaotian - Festering Excarnation [compilation] (2020), Death Metal
post May 22 2020, 13:06:01
Post #1

Правь статус, ####!111
**************
Group: Металариец
Posts: 21,863
Releases: 15074
From: Г.Харьков
On Forums: 8 years 2 weeks
Thanks: 273144 time(s)
Unknown


(IMG:https://metalarea.org/images/audiocovers/2020_May/acov_tid337956_thumb.jpg)

*Artist: Chaotian
*Album: Festering Excarnation [compilation]
*Year: 2020
*Genre: Death Metal
*Country: Denmark (IMG:https://metalarea.org/forum/style_images/flags/Denmark.png)
*Format: mp3@CBR320kbps
*Size: 83MB

Tracklist:
1. Paroxysmal Birth 06:03
2. Where Gods Excarnate 08:50
3. Chaos Kampf 05:31
4. In Eternal Servitude to Ahalpuh 05:33
5. Devastation Laureate 02:57
6. Festering Carcinolith 05:46
******************************
Total playing time: 34:40




Extended info
Jonas Grønborg Bass (2017-present)
Andreas Nordgreen Drums, Vocals (2017-present)
Søren Willatzen Guitars, Vocals (2017-present)
See also: Lindorm, ex-Accursed Years


Technical info
(IMG:https://metalarea.org/images/spectrogram/2020_May/b00eacbfa304b29a7516df97ca40bc73.png)
Input File: 03 Chaos Kampf.mp3
Channels : 2
Sample Rate : 44100
Precision : 16-bit
Duration : 00:05:31.49 = 14618533 samples = 24861.5 CDDA sectors
File Size : 13.9M
Bit Rate : 335k
Sample Encoding: MPEG audio (layer I, II or III)
Comments :
Title=Chaos Kampf
Artist=Chaotian
Album=Festering Excarnation
Tracknumber=3/6
Year=2020-20-20
Genre=Rock
Discnumber=1/1



Register


Go to the top of the page
  Insert nick Quick quote
+Quote Post
 
Start new topic
Replies (1 - 2)
post May 22 2020, 18:25:03
Post #2

Туфлєблек то є файно
**************
Group: Металариец
Posts: 2,086
Releases: 0
From: Україна
On Forums: 11 years 4 months
Thanks: 1397 time(s)
Ukraine


Могильные звери.
Две демки, компиляха, включил, сразу вспомнил о Хибердонтии и Ундерганге.
Датчане лохматят бабушку со знанием кладбищенского дела.
Для любителей на похороны не торопясь зер гуд.
Остальные как хотят.
Слышно ребята любят это дело.




Go to the top of the page
  Insert nick Quick quote
+Quote Post
post May 22 2020, 20:08:32
Post #3

Шесть Литров
******
Group: Металариец
Posts: 664
Releases: 0
From: where the sun slumbers
On Forums: 11 years 11 months
Thanks: 284 time(s)
Unknown


Охрененная тема, с упором на риффинг. Прослушал на одном дыхании. Первая демка вообще огонь.


Go to the top of the page
  Insert nick Quick quote
+Quote Post

Reply to this topicStart new topic
1 User(s) are reading this topic (1 Guests and 0 Anonymous Users)
0 Members:

 



- Lo-Fi Version Support form
Copyrights and abuse reports form
Time is now: 28th May 2020 - 08:03:18