Welcome Guest ( Log In | Register )

> Releases Upload / Добавление релизов

Добавить релиз тут / Click here to add release
Рекомендованные обменники / Recommended file shares

> Dark Adaptation - The Seedlings [ep] (2020), Melodic Black/Death Metal
post May 22 2020, 14:08:38
Post #1

Правь статус, ####!111
**************
Group: Металариец
Posts: 6,502
Releases: 5993
From: Lithuania
On Forums: 13 years 7 months
Thanks: 44871 time(s)
Lithuania


(IMG:https://metalarea.org/images/audiocovers/2020_May/acov_tid337957_thumb.jpg)

*Artist: Dark Adaptation
*Album: The Seedlings [ep]
*Year: 2020
*Genre: Melodic Black/Death Metal
*Country: United States (IMG:https://metalarea.org/forum/style_images/flags/United%20States.png)
*Format: mp3@CBR320kbps
*Size: 50MB

Tracklist:
1. Outlander 03:32
2. Ocultation 04:43
3. Dark Matter Gestation 04:09
4. Nebula of Wraiths 04:03
5. Black Star Oasis 05:22
******************************
Total playing time: 21:49



Technical info
(IMG:https://metalarea.org/images/spectrogram/2020_May/25bce2d1b6c727dcc55cab88fcb85b67.png)
Input File: 02 OCCULTATION.mp3
Channels : 2
Sample Rate : 44100
Precision : 16-bit
Duration : 00:04:43.08 = 12483740 samples = 21230.9 CDDA sectors
File Size : 11.4M
Bit Rate : 321k
Sample Encoding: MPEG audio (layer I, II or III)
Comments :
Title=OCCULTATION
Artist=DARK ADAPTATION
Album=THE SEEDLINGS
Tracknumber=2
Year=2020
Genre=9



Register


Go to the top of the page
  Insert nick Quick quote
+Quote Post
 
Start new topic
Replies (1 - 1)
post May 25 2020, 08:42:54
Post #2

Правь статус, ####!111
**************
Group: Металариец
Posts: 3,007
Releases: 8
From: Dnipro
On Forums: 11 years 10 months
Thanks: 970 time(s)
Ukraine


Кустарщина (IMG:style_emoticons/default/6.gif)
Go to the top of the page
  Insert nick Quick quote
+Quote Post

Reply to this topicStart new topic
1 User(s) are reading this topic (1 Guests and 0 Anonymous Users)
0 Members:

 



- Lo-Fi Version Support form
Copyrights and abuse reports form
Time is now: 31st May 2020 - 05:26:21