Welcome Guest ( Log In | Register )

> Releases Upload / Добавление релизов

Добавить релиз тут / Click here to add release
Рекомендованные обменники / Recommended file shares

 
Reply to this topicStart new topic
> From Silence - At The Edge Of Reason [ep] (2015), Progressive/Melodic Death Metal
post May 22 2020, 14:18:49
Post #1

Правь статус, ####!111
**************
Group: Металариец
Posts: 6,503
Releases: 5993
From: Lithuania
On Forums: 13 years 7 months
Thanks: 44900 time(s)
Lithuania


(IMG:https://metalarea.org/images/audiocovers/2020_May/acov_tid337958_thumb.jpg)

*Artist: From Silence
*Album: At The Edge Of Reason [ep]
*Year: 2015
*Genre: Progressive/Melodic Death Metal
*Country: France (IMG:https://metalarea.org/forum/style_images/flags/France.png)
*Format: mp3@CBR320kbps
*Size: 76MB

Tracklist:
1. Lost 02:08
2. Cold Sweat 05:25
3. Falsified Memories 05:30
4. At the Edge of Madness 06:50
5. Abyssal Mist 05:50
6. The Sovereign Way 07:02
******************************
Total playing time: 32:45


(IMG:https://metalarea.org/images/youtube.png)

Technical info
(IMG:https://metalarea.org/images/spectrogram/2020_May/80184e878fa9c07b73fb78651290df71.png)
Input File: 02 Cold Sweat.mp3
Channels : 2
Sample Rate : 44100
Precision : 16-bit
Duration : 00:05:25.09 = 14336249 samples = 24381.4 CDDA sectors
File Size : 13.1M
Bit Rate : 322k
Sample Encoding: MPEG audio (layer I, II or III)
Comments :
Title=Cold Sweat
Artist=From Silence
Album=At The Edge Of Reason
Tracknumber=2
Year=2020
Genre=9



Register


Go to the top of the page
  Insert nick Quick quote
+Quote Post

Reply to this topicStart new topic
1 User(s) are reading this topic (1 Guests and 0 Anonymous Users)
0 Members:

 



- Lo-Fi Version Support form
Copyrights and abuse reports form
Time is now: 3rd June 2020 - 00:52:54