Welcome Guest ( Log In | Register )

> Releases Upload / Добавление релизов

Добавить релиз тут / Click here to add release
Рекомендованные обменники / Recommended file shares

> Glorified Enthronement - Millennial Chaos (2019), Technical Death Metal
post May 22 2020, 14:24:41
Post #1

Правь статус, ####!111
**************
Group: Металариец
Posts: 6,502
Releases: 5993
From: Lithuania
On Forums: 13 years 7 months
Thanks: 44871 time(s)
Lithuania


(IMG:https://metalarea.org/images/audiocovers/2020_May/acov_tid337959_thumb.jpg)

*Artist: Glorified Enthronement
*Album: Millennial Chaos
*Year: 2019
*Genre: Technical Death Metal
*Country: Japan (IMG:https://metalarea.org/forum/style_images/flags/Japan.png)
*Format: mp3@CBR320kbps
*Size: 99MB

Tracklist:
1. Disguise the Skies 05:03
2. Crumbling Integrity 04:05
3. Extraordinary 04:05
4. Horizonal Collisions 04:44
5. No Glory Throne 04:25
6. Depths of Hatred 02:30
7. (Spi)ritual 05:05
8. Abuse of Justice 02:59
9. Stream of Dispersed Souls 05:09
10. Millennial Chaos 05:11
******************************
Total playing time: 43:16




Technical info
(IMG:https://metalarea.org/images/spectrogram/2020_May/140a8f115d2a1e89adff53987286df12.png)
Input File: 02. Crumbling Integrity.mp3
Channels : 2
Sample Rate : 44100
Precision : 16-bit
Duration : 00:04:05.63 = 10832239 samples = 18422.2 CDDA sectors
File Size : 9.82M
Bit Rate : 320k
Sample Encoding: MPEG audio (layer I, II or III)
Comments :
Title=Crumbling Integrity
Artist=Glorified Enthronement
Album=Millennial Chaos
Tracknumber=2
Year=2019
Genre=Metal



Register


Go to the top of the page
  Insert nick Quick quote
+Quote Post
 
Start new topic
Replies (1 - 1)
post May 22 2020, 20:24:50
Post #2

В чистоте и единстве:мысль-слово-дело
**************
Group: Металариец
Posts: 2,429
Releases: 9
From: Киев
On Forums: 12 years 10 months
Thanks: 1433 time(s)
Ukraine


Мало понятная стучалка. Вот на bandcamp у них там другие работы есть. ОНи по лучше будут. Хотя и не в жанре техно/деза
Go to the top of the page
  Insert nick Quick quote
+Quote Post

Reply to this topicStart new topic
1 User(s) are reading this topic (1 Guests and 0 Anonymous Users)
0 Members:

 



- Lo-Fi Version Support form
Copyrights and abuse reports form
Time is now: 31st May 2020 - 05:43:18