Welcome Guest ( Log In | Register )

> Silvered - Grave Of Deception (2012), Gothic/Doom/Death Metal
post May 22 2020, 14:29:05
Post #1

Правь статус, ####!111
**************
Group: Металариец
Posts: 6,502
Releases: 5993
From: Lithuania
On Forums: 13 years 7 months
Thanks: 44870 time(s)
Lithuania


(IMG:https://metalarea.org/images/audiocovers/2020_May/acov_tid337960_thumb.jpg)

*Artist: Silvered
*Album: Grave Of Deception
*Year: 2012
*Genre: Gothic/Doom/Death Metal
*Country: Italy (IMG:https://metalarea.org/forum/style_images/flags/Italy.png)
*Format: mp3@CBR128kbps (IMG:https://metalarea.org/images/bit_low.gif)
*Size: 59MB

Tracklist:
1. Prologue 00:59 (Instrumental)
2. The Silent Moan 05:19
3. Sad Eyed Liar 06:47
4. Emptiness of the Day 03:27
5. The Descent 06:38
6. Into the Field of Rusty Nails 06:42
7. Beyond the Abyss 02:08
8. Forgotten 04:50
9. Winter's Caress 08:06
10. Was My Breath 07:24
11. The Option 03:57
12. Ruby Sand 06:06
13. Epilogue 01:45 (Instrumental)
******************************
Total playing time: 1:04:08


(IMG:https://metalarea.org/images/youtube.png)

Technical info
(IMG:https://metalarea.org/images/spectrogram/2020_May/720def2792b34fa9b0222908f4cbd990.png)
Input File: 02. The Silent Moan.mp3
Channels : 2
Sample Rate : 44100
Precision : 16-bit
Duration : 00:05:19.28 = 14080248 samples = 23946 CDDA sectors
File Size : 5.11M
Bit Rate : 128k
Sample Encoding: MPEG audio (layer I, II or III)
Comments :
Title=The Silent Moan
Artist=Silvered
Album=Grave of Deception
Tracknumber=2
Year=2012



Register


Go to the top of the page
  Insert nick Quick quote
+Quote Post
 
Start new topic
Replies (1 - 1)
post May 23 2020, 08:57:11
Post #2

Group: Подсевший
Posts: 11
Releases: 0
On Forums: 1 month 1 week
Thanks: 0 time(s)
United States


Hi! Can you reupload the zip from this post?
https://metalarea.org/forum/index.phpshowto...l=imperial+dusk
Go to the top of the page
  Insert nick Quick quote
+Quote Post

Reply to this topicStart new topic
1 User(s) are reading this topic (1 Guests and 0 Anonymous Users)
0 Members:

 



- Lo-Fi Version Support form
Copyrights and abuse reports form
Time is now: 31st May 2020 - 03:49:45