Welcome Guest ( Log In | Register )

> Releases Upload / Добавление релизов

Добавить релиз тут / Click here to add release
Рекомендованные обменники / Recommended file shares

> Habitante - Desde Las Sombras (2015), Melodic Doom/Death Metal
post May 22 2020, 14:54:22
Post #1

but I'm white and furry
**********
Group: Металариец
Posts: 1,307
Releases: 463
From: Москва
On Forums: 14 years 3 months
Thanks: 5971 time(s)
Russian Federation


(IMG:https://metalarea.org/images/audiocovers/2020_May/acov_tid337961_thumb.jpg)

*Artist: Habitante
*Album: Desde Las Sombras
*Year: 2015
*Genre: Melodic Doom/Death Metal
*Country: Chile (IMG:https://metalarea.org/forum/style_images/flags/Chile.png)
*Format: mp3@CBR320kbps
*Size: 88MB

Tracklist:
1. Ayalen 1:07
2. Ancestros 6:19
3. Cristales 4:35
4. Errante 6:14
5. Viaje Fantasma 6:48
6. Huellas 7:41
7. Bajo el Ocaso 6:07
******************************
Total playing time: 38:51

(IMG:https://metalarea.org/images/youtube.png)

Extended info
2017 remastered version, lame 3.93


Technical info
(IMG:https://metalarea.org/images/spectrogram/2020_May/d62fc38e2178487c509589339fbcd620.png)
Input File: 02 - Ancestros.mp3
Channels : 2
Sample Rate : 44100
Precision : 16-bit
Duration : 00:06:19.01 = 16714253 samples = 28425.6 CDDA sectors
File Size : 15.2M
Bit Rate : 320k
Sample Encoding: MPEG audio (layer I, II or III)
Comments :
Title=Ancestros
Artist=Habitante
Album=Desde las Sombras
Tracknumber=2
Year=2015
Genre=Metal



Register


Go to the top of the page
  Insert nick Quick quote
+Quote Post
 
Start new topic
Replies (1 - 1)
post May 22 2020, 16:59:12
Post #2

Литр
*
Group: Подсевший
Posts: 79
Releases: 0
On Forums: 2 years 3 months
Thanks: 27 time(s)
Belarus


Сыро, однообразно, пусто. Какой-то откровенно любительский материал.
Go to the top of the page
  Insert nick Quick quote
+Quote Post

Reply to this topicStart new topic
2 User(s) are reading this topic (2 Guests and 0 Anonymous Users)
0 Members:

 



- Lo-Fi Version Support form
Copyrights and abuse reports form
Time is now: 25th May 2020 - 03:01:24