Welcome Guest ( Log In | Register )

> Releases Upload / Добавление релизов

Добавить релиз тут / Click here to add release
Рекомендованные обменники / Recommended file shares

> Ancient Hatred - Glorification Of The End (2020), Black Metal
post May 22 2020, 16:45:02
Post #1

Правь статус, ####!111
**************
Group: Металариец
Posts: 2,005
Releases: 1585
From: Praha
On Forums: 6 years 1 month
Thanks: 40302 time(s)
Czech Republic


(IMG:http://metalarea.org/images/audiocovers/2020_May/acov_tid337964_thumb.jpg)

*Artist: Ancient Hatred
*Album: Glorification Of The End
*Year: 2020
*Genre: Black Metal
*Country: Finland (IMG:http://metalarea.org/forum/style_images/flags/Finland.png)
*Format: mp3@CBR320kbps
*Size: 103MB

Tracklist:
1. All Hail Death
2. Ruins of the Old World
3. Death Swallows the Earth
4. Epoch
5. Wyrdmungandr
6. Decrepit Path
7. Glorification of the End
******************************
Total playing time: 41:37



Extended info
Astral Nightmare Productions - ANP 027


Technical info
(IMG:http://metalarea.org/images/spectrogram/2020_May/c30b56361a4177e73b59ab8fd19645d0.png)
Input File: 03. Death Swallows the Earth.mp3
Channels : 2
Sample Rate : 44100
Precision : 16-bit
Duration : 00:05:50.26 = 15446422 samples = 26269.4 CDDA sectors
File Size : 14.1M
Bit Rate : 323k
Sample Encoding: MPEG audio (layer I, II or III)
Comments :
Title=Death Swallows the Earth
Artist=Ancient Hatred
Album=Glorification of the End
Tracknumber=03/07
Year=2020
Genre=Black Metal



Register


Go to the top of the page
  Insert nick Quick quote
+Quote Post
 
Start new topic
Replies (1 - 3)
post May 23 2020, 09:45:48
Post #2
BAN
RO till
--



в меру мелодичная и злобная нетривиальная финка.
даже очень нетривиальная. отличный атмосферный альбом.
Go to the top of the page
  Insert nick Quick quote
+Quote Post
post May 23 2020, 14:58:50
Post #3

Литр
*
Group: Подсевший
Posts: 66
Releases: 0
On Forums: 11 years 10 months
Thanks: 19 time(s)
Russian Federation


A new link, please? Thank you in advance. (IMG:style_emoticons/default/smile1.gif)
Go to the top of the page
  Insert nick Quick quote
+Quote Post
post May 23 2020, 15:45:58
Post #4

Восемь Литров
********
Group: Металариец
Posts: 828
Releases: 117
On Forums: 5 years 10 months
Thanks: 4002 time(s)
Unknown


Register


Go to the top of the page
  Insert nick Quick quote
+Quote Post

Reply to this topicStart new topic
2 User(s) are reading this topic (2 Guests and 0 Anonymous Users)
0 Members:

 



- Lo-Fi Version Support form
Copyrights and abuse reports form
Time is now: 28th May 2020 - 13:56:07