Welcome Guest ( Log In | Register )

> Releases Upload / Добавление релизов

Добавить релиз тут / Click here to add release
Рекомендованные обменники / Recommended file shares

 
Reply to this topicStart new topic
> Distruzione Di Massa - Varcando Ogni Lucido Limite [ep] (2010), Death Metal/Grindcore
post May 22 2020, 18:08:43
Post #1

Маньяк
**********
Group: Металариец
Posts: 1,120
Releases: 406
From: Саранск
On Forums: 9 years 2 weeks
Thanks: 3358 time(s)
Russian Federation


(IMG:http://metalarea.org/images/audiocovers/2020_May/acov_tid337965_thumb.jpg)

*Artist: Distruzione Di Massa
*Album: Varcando Ogni Lucido Limite [ep]
*Year: 2010
*Genre: Death Metal/Grindcore
*Country: Italy (IMG:http://metalarea.org/forum/style_images/flags/Italy.png)
*Format: mp3@VBR245kbps
*Size: 42MB

Tracklist:
1. Varcando ogni limite 04:50
2. Invoco la guerra nucleare 02:25
3. Supermercato della carne 02:28
4. 'Shroomin' 05:25
5. Lucido 07:43
******************************
Total playing time: 22:51

(IMG:http://metalarea.org/images/youtube.png)

Technical info
(IMG:http://metalarea.org/images/spectrogram/2020_May/b9cd4c5dd997d0c346635a9809b8aede.png)
Input File: 1 Varcando ogni limite.mp3
Channels : 2
Sample Rate : 48000
Precision : 16-bit
Duration : 00:04:45.91 = 13723776 samples ~ 21443.4 CDDA sectors
File Size : 9.59M
Bit Rate : 268k
Sample Encoding: MPEG audio (layer I, II or III)
Comments :
Title=Varcando ogni limite
Artist=Distruzione di Massa
Album=Varcando ogni lucido limite (EP)
Tracknumber=1
Year=2016



Register


Go to the top of the page
  Insert nick Quick quote
+Quote Post

Reply to this topicStart new topic
2 User(s) are reading this topic (2 Guests and 0 Anonymous Users)
0 Members:

 



- Lo-Fi Version Support form
Copyrights and abuse reports form
Time is now: 28th May 2020 - 19:06:58