Welcome Guest ( Log In | Register )

> Правила / Rules

Тут только для чтения лежат низкобитрейтные (<192kbps) релизы, для которых есть аналоги в высокобитрейтных форумах.

Here goes (and stand in read only mode) low bitrate releases (<192kbps) which were already replaced by high bitrate releases in corresponding forums.

> Entorx - Faceless Insanity (2020), Death/Thrash Metal
post May 22 2020, 18:46:34
Post #1

MDM-Thrash Metal
**************
Group: Металариец
Posts: 9,522
Releases: 861
From: Одесса
On Forums: 12 years 9 months
Thanks: 22623 time(s)
Ukraine


(IMG:http://metalarea.org/images/audiocovers/2020_May/acov_tid337966_thumb.jpg)

*Artist: Entorx
*Album: Faceless Insanity
*Year: 2020
*Genre: Death/Thrash Metal
*Country: Germany (IMG:http://metalarea.org/forum/style_images/flags/Germany.png)
*Format: mp3@CBR128kbps (IMG:http://metalarea.org/images/bit_low.gif)
*Size: 47MB

Tracklist:
1. Overture: Condamnation 02:27
2. Black Dawn 06:13
3. Hypocritical Faith 04:48
4. PTSD 05:00
5. Isolation 01:13
6. Madness Unchained 07:10
7. Paranoid Conspiracy 04:07
8. Morbid Rage 04:54
9. Doomed 10:10
10. Death Machine 04:28
******************************
Total playing time: 50:30



(IMG:http://metalarea.org/images/youtube.png)

Extended info
Lukas Neff Drums
Taras Brygadin Bass (2009-present)
See also: ex-Tremescum
Bogdan Brygadin Guitars (2009-present)
See also: Burning Buses, ex-Tremescum
René Baron Vocals (2012-present)
See also: Arkuum
Sascha Dörr Guitars (2018-present)
See also: ex-Morphyn


Technical info
(IMG:http://metalarea.org/images/spectrogram/2020_May/5fe71dc7aaf84074d3a512326d50523f.png)
Input File: 02_entorx_black_dawn.mp3
Channels : 2
Sample Rate : 44100
Precision : 16-bit
Duration : 00:06:13.78 = 16483522 samples = 28033.2 CDDA sectors
File Size : 6.06M
Bit Rate : 130k
Sample Encoding: MPEG audio (layer I, II or III)
Comments :
Title=Black Dawn
Artist=ENTORX
Album=Faceless Insanity
Tracknumber=2/10
Year=2020



Register


Go to the top of the page
  Insert nick Quick quote
+Quote Post
 
Start new topic
Replies (1 - 1)
post May 23 2020, 18:34:06
Post #2

MDM-Thrash Metal
**************
Group: Металариец
Posts: 9,522
Releases: 861
From: Одесса
On Forums: 12 years 9 months
Thanks: 22623 time(s)
Ukraine


Отличная работа! Четкий, размеренный, качевый сабж, потрясающая ритм секция - альбом слушается с большим удовольствием, несмотря на низковатый битрейд.


Thanks:
Go to the top of the page
  Insert nick Quick quote
+Quote Post

Причина закрытия (Абигор 28-05-2020): Entorx - Faceless Insanity (2020)
Closed TopicStart new topic
1 User(s) are reading this topic (1 Guests and 0 Anonymous Users)
0 Members:

 



- Lo-Fi Version Support form
Copyrights and abuse reports form
Time is now: 31st May 2020 - 04:41:50