Welcome Guest ( Log In | Register )

> Releases Upload / Добавление релизов

Добавить релиз тут / Click here to add release
Рекомендованные обменники / Recommended file shares

> Kasvoton - Jumalansa Tappaneet (2020), Death Metal
post May 22 2020, 19:57:47
Post #1

MDM-Thrash Metal
**************
Group: Металариец
Posts: 9,522
Releases: 861
From: Одесса
On Forums: 12 years 9 months
Thanks: 22623 time(s)
Ukraine


(IMG:http://metalarea.org/images/audiocovers/2020_May/acov_tid337967_thumb.jpg)

*Artist: Kasvoton
*Album: Jumalansa Tappaneet
*Year: 2020
*Genre: Death Metal
*Country: Finland (IMG:http://metalarea.org/forum/style_images/flags/Finland.png)
*Format: mp3@CBR320kbps
*Size: 88MB

Tracklist:
1. Pois valosta 03:54
2. Niele lasia 02:56
3. Dehumanisaatio 02:52
4. Orja ja mestari 04:44
5. Tuhkasta noussut 05:34
6. Hehku 02:12
7. Kirottu 03:54
8. --- 06:22
9. Jumalansa tappaneet 05:17
******************************
Total playing time: 37:45



(IMG:http://metalarea.org/images/youtube.png)

Extended info
Antti Kaipainen Drums
Rolle Hirsimäki Guitars
Mikko Ropo Vocals, Bass


Technical info
(IMG:http://metalarea.org/images/spectrogram/2020_May/aff92acaf25c6c78e7292747b9b6544d.png)
Input File: 02 - Niele Lasia.mp3
Channels : 2
Sample Rate : 44100
Precision : 16-bit
Duration : 00:02:55.97 = 7760409 samples = 13198 CDDA sectors
File Size : 7.32M
Bit Rate : 333k
Sample Encoding: MPEG audio (layer I, II or III)
Comments :
Title=Niele Lasia
Artist=Kasvoton
Album=Jumalansa Tappaneet
Tracknumber=2
Year=2020



Register


Go to the top of the page
  Insert nick Quick quote
+Quote Post
 
Start new topic
Replies (1 - 2)
post May 23 2020, 08:15:53
Post #2

hearer & reader
**************
Group: Металариец
Posts: 8,695
Releases: 140
From: Moscow
On Forums: 12 years 8 months
Thanks: 8730 time(s)
Russian Federation


Определённо Blackened Death


Go to the top of the page
  Insert nick Quick quote
+Quote Post
post May 23 2020, 15:40:54
Post #3

Три Литра
***
Group: Завсегдатай
Posts: 223
Releases: 0
From: Vilnius
On Forums: 13 years 3 months
Thanks: 48 time(s)
Lithuania


Облога Demigod-Slumber Of Sullen Eyes 1992 напомнила
Go to the top of the page
  Insert nick Quick quote
+Quote Post

Reply to this topicStart new topic
1 User(s) are reading this topic (1 Guests and 0 Anonymous Users)
0 Members:

 



- Lo-Fi Version Support form
Copyrights and abuse reports form
Time is now: 31st May 2020 - 05:55:46