Welcome Guest ( Log In | Register )

> Releases Upload / Добавление релизов

Добавить релиз тут / Click here to add release
Рекомендованные обменники / Recommended file shares

 
Reply to this topicStart new topic
> Sekator - Defy Inertia (2020), Thrash/Death Metal
post May 22 2020, 20:05:08
Post #1

MDM-Thrash Metal
**************
Group: Металариец
Posts: 9,511
Releases: 861
From: Одесса
On Forums: 12 years 9 months
Thanks: 22570 time(s)
Ukraine


(IMG:http://metalarea.org/images/audiocovers/2020_May/acov_tid337969_thumb.jpg)

*Artist: Sekator
*Album: Defy Inertia
*Year: 2020
*Genre: Thrash/Death Metal
*Country: Poland (IMG:http://metalarea.org/forum/style_images/flags/Poland.png)
*Format: mp3@CBR320kbps
*Size: 118MB

Tracklist:
1. Intro 01:33 instrumental
2. Threaten the World 04:23
3. A Drastic Conversion 03:47
4. Suffering ov Myself 05:22
5. Lost 03:32
6. Corrosion ov the Mind 02:56
7. Exodos 05:27
8. Soul Collector 02:46
9. Fuck You 04:16
10. Barbaric Minds 04:35
11. Fear Controlled 03:20
12. Insomnia 10:12
******************************
Total playing time: 52:09



(IMG:http://metalarea.org/images/youtube.png)

Extended info
Maciej "Repeta" Krzewski Bass (2008-present)
See also: ex-Bloodfeast
Przemysław "MC Harambe" Krzewski Vocals (2008-present)
Adam "Krasz" Niekrasz Drums (2011-present)
See also: Devilish Impressions, Paint My Horror
Kuba "Andrzej" Andruszkiewicz Guitars (2014-present)
See also: ex-Deathibrillator, 13 Piętro
Kuba "Różal" Różycki Guitars (2015-present)
See also: 13 Piętro


Technical info
(IMG:http://metalarea.org/images/spectrogram/2020_May/198759bb2d7abc0f08b07798ad1398e1.png)
Input File: 02 - Threaten the World.mp3
Channels : 2
Sample Rate : 44100
Precision : 16-bit
Duration : 00:04:13.82 = 11193550 samples = 19036.6 CDDA sectors
File Size : 10.3M
Bit Rate : 325k
Sample Encoding: MPEG audio (layer I, II or III)
Comments :
Title=Threaten the World
Artist=Sekator
Album=Defy Inertia
Tracknumber=2
Year=2020



Register


Go to the top of the page
  Insert nick Quick quote
+Quote Post

Reply to this topicStart new topic
1 User(s) are reading this topic (1 Guests and 0 Anonymous Users)
0 Members:

 



- Lo-Fi Version Support form
Copyrights and abuse reports form
Time is now: 28th May 2020 - 07:31:22