Welcome Guest ( Log In | Register )

> Releases Upload / Добавление релизов

Добавить релиз тут / Click here to add release
Рекомендованные обменники / Recommended file shares

> Dehumanaut - Dust In The Giant's Hand (2020), Extreme/Melodic Death Metal
post May 22 2020, 20:30:43
Post #1

MDM-Thrash Metal
**************
Group: Металариец
Posts: 9,522
Releases: 861
From: Одесса
On Forums: 12 years 9 months
Thanks: 22623 time(s)
Ukraine


(IMG:http://metalarea.org/images/audiocovers/2020_May/acov_tid337971_thumb.jpg)

*Artist: Dehumanaut
*Album: Dust In The Giant's Hand
*Year: 2020
*Genre: Extreme/Melodic Death Metal
*Country: United Kingdom (IMG:http://metalarea.org/forum/style_images/flags/United%20Kingdom.png)
*Format: mp3@CBR320kbps
*Size: 100MB

Tracklist:
1. Judgement Reigns
2. The Noose Is Tight
3. Ashes
4. Eyes to the Sky
5. Curses
6. This Is Our War
7. In the Ruins of Light
8. Inherited Absurdity
9. Cognitive Dissonance
10. A World Unmade
******************************
Total playing time: 42:02


(IMG:http://metalarea.org/images/youtube.png)

Technical info
(IMG:http://metalarea.org/images/spectrogram/2020_May/d5dbc67d382ae4fbe04ac75304653ce9.png)
Input File: 02 - The Noose Is Tight.mp3
Channels : 2
Sample Rate : 44100
Precision : 16-bit
Duration : 00:03:28.65 = 9201641 samples = 15649 CDDA sectors
File Size : 8.76M
Bit Rate : 336k
Sample Encoding: MPEG audio (layer I, II or III)
Comments :
Title=The Noose Is Tight
Artist=Dehumanaut
Album=Dust in the Giant's Hand
Tracknumber=2
Year=2020



Register


Go to the top of the page
  Insert nick Quick quote
+Quote Post
 
Start new topic
Replies (1 - 3)
post May 23 2020, 08:25:58
Post #2

hearer & reader
**************
Group: Металариец
Posts: 8,695
Releases: 140
From: Moscow
On Forums: 12 years 8 months
Thanks: 8730 time(s)
Russian Federation


Jon Rudin - Drums (From Ruin, Just Before Dawn, Pale King, Wombbath, ex-Ashcloud, ex-Body Harvest) (IMG:style_emoticons/default/smile1.gif)


Thanks:
Go to the top of the page
  Insert nick Quick quote
+Quote Post
post May 24 2020, 09:24:11
Post #3

Ёлд ХеллоВяйне
Group Icon
Group: V.I.P
Posts: 29,725
Releases: 137
From: Питер
On Forums: 13 years 7 months
Thanks: 17628 time(s)
Russian Federation


Очень жиденько, экстримом и не пахнет.
Go to the top of the page
  Insert nick Quick quote
+Quote Post
post Yesterday, 09:39:24
Post #4

Ъ
**************
Group: Металариец
Posts: 10,077
Releases: 9
On Forums: 11 years 4 months
Thanks: 2016 time(s)
Sweden


Третьесорт.
Go to the top of the page
  Insert nick Quick quote
+Quote Post

Reply to this topicStart new topic
1 User(s) are reading this topic (1 Guests and 0 Anonymous Users)
0 Members:

 



- Lo-Fi Version Support form
Copyrights and abuse reports form
Time is now: 31st May 2020 - 05:34:21