Welcome Guest ( Log In | Register )

> Releases Upload / Добавление релизов

Добавить релиз тут / Click here to add release
Рекомендованные обменники / Recommended file shares

 
Reply to this topicStart new topic
> Constant Nausea - Niech Bedzie Chwala [demo] (2020), Black Metal
post May 22 2020, 21:08:50
Post #1

MDM-Thrash Metal
**************
Group: Металариец
Posts: 9,515
Releases: 861
From: Одесса
On Forums: 12 years 9 months
Thanks: 22575 time(s)
Ukraine


(IMG:http://metalarea.org/images/audiocovers/2020_May/acov_tid337972_thumb.jpg)

*Artist: Constant Nausea
*Album: Niech Bedzie Chwala [demo]
*Year: 2020
*Genre: Black Metal
*Country: Poland (IMG:http://metalarea.org/forum/style_images/flags/Poland.png)
*Format: mp3@CBR320kbps
*Size: 50MB

Tracklist:
1. Ostateczny Koniec Wszystkiego
2. Niech Bedzie Chwala
3. Prawdziwa Wolnosc
4. Masturbacja To Zycie
5. Zobaczyc Deszcz
******************************
Total playing time: 21:05


(IMG:http://metalarea.org/images/youtube.png)


Technical info
(IMG:http://metalarea.org/images/spectrogram/2020_May/9521c5845afdf59039205567ee2202a1.png)
Input File: Constant Nausea - Niech Będzie Chwała - 02 Niech Będzie Chwała.mp3
Channels : 2
Sample Rate : 44100
Precision : 16-bit
Duration : 00:03:18.88 = 8770652 samples = 14916.1 CDDA sectors
File Size : 8.01M
Bit Rate : 322k
Sample Encoding: MPEG audio (layer I, II or III)
Comments :
Title=Niech Będzie Chwała
Artist=Constant Nausea
Album=Niech Będzie Chwała
Tracknumber=2
Year=2020



Register


Go to the top of the page
  Insert nick Quick quote
+Quote Post

Reply to this topicStart new topic
2 User(s) are reading this topic (2 Guests and 0 Anonymous Users)
0 Members:

 



- Lo-Fi Version Support form
Copyrights and abuse reports form
Time is now: 28th May 2020 - 14:08:46