Welcome Guest ( Log In | Register )

> Releases Upload / Добавление релизов

Добавить релиз тут / Click here to add release
Рекомендованные обменники / Recommended file shares

> Messerschmitt - Consumed By Fire (2020), Speed Metal
post May 22 2020, 23:13:27
Post #1

Правь статус, ####!111
**************
Group: Металариец
Posts: 21,866
Releases: 15074
From: Г.Харьков
On Forums: 8 years 2 weeks
Thanks: 273177 time(s)
Unknown


(IMG:https://metalarea.org/images/audiocovers/2020_May/acov_tid337973_thumb.jpg)

*Artist: Messerschmitt
*Album: Consumed By Fire
*Year: 2020
*Genre: Speed Metal
*Country: Germany (IMG:https://metalarea.org/forum/style_images/flags/Germany.png)
*Format: mp3@CBR320kbps
*Size: 92MB

Tracklist:
1. Fairchild
2. Consumed by Fire
3. Psychoqueen
4. The Vanishing Strains
5. Arms of Havoc
6. A Masterful Bloodshed
7. Hematic Wrath
8. And I crave to die
******************************
Total playing time: 39:20




Extended info
Kristian Tamm Drums (2010-present)
See also: Alley Cat
Maik Jegszenties Guitars, Vocals (2010-present)
See also: Strongholde
Florian Piwek Bass (2011-present)
See also: Alley Cat, Strongholde, ex-Daevas
Christian Fass Guitars (2014-present)
See also: Sunset Steel


Technical info
(IMG:https://metalarea.org/images/spectrogram/2020_May/32881a2d861a8fd5d14f1d6e55a2e9f6.png)
Input File: 04 The Vanishing Strains.mp3
Channels : 2
Sample Rate : 44100
Precision : 16-bit
Duration : 00:05:56.62 = 15726810 samples = 26746.3 CDDA sectors
File Size : 14.5M
Bit Rate : 326k
Sample Encoding: MPEG audio (layer I, II or III)
Comments :
Title=The Vanishing Strains
Artist=Messerschmitt
Album=Consumed By Fire
Tracknumber=4/8
Year=2020-20-20
Genre=Metal
Discnumber=1/1



Register


Go to the top of the page
  Insert nick Quick quote
+Quote Post
 
Start new topic
Replies (1 - 7)
post May 23 2020, 08:18:48
Post #2

hearer & reader
**************
Group: Металариец
Posts: 8,695
Releases: 140
From: Moscow
On Forums: 12 years 8 months
Thanks: 8710 time(s)
Russian Federation


https://music.yandex.ru/album/10812688
Заматерели, играют Speed/Thrash бодрый такой.
Go to the top of the page
  Insert nick Quick quote
+Quote Post
post May 23 2020, 08:48:38
Post #3

За Русь в метро взорвусь
**************
Group: Металариец
Posts: 2,859
Releases: 2
From: Yaroslavl
On Forums: 3 years 8 months
Thanks: 1789 time(s)
Northern Mariana Islands


О я думал это тот старый проект с Хэллхаммером, ныне канувший в лету
Go to the top of the page
  Insert nick Quick quote
+Quote Post
post May 23 2020, 10:42:45
Post #4

Пять Литров
*****
Group: Металариец
Posts: 492
Releases: 0
From: Град Московский
On Forums: 12 years 4 months
Thanks: 125 time(s)
Russian Federation


Замечательно,по всем аспектам!!! Владение инструментами,классное... Олдовый подход к делу!
Go to the top of the page
  Insert nick Quick quote
+Quote Post
post May 24 2020, 08:50:29
Post #5

Пять Литров
*****
Group: Металариец
Posts: 460
Releases: 0
On Forums: 14 years 4 months
Thanks: 18 time(s)
Russian Federation


Great old school....thanks.
Go to the top of the page
  Insert nick Quick quote
+Quote Post
post May 24 2020, 09:14:51
Post #6

Два Литра
**
Group: Завсегдатай
Posts: 145
Releases: 0
From: TheМля
On Forums: 13 years 8 months
Thanks: 53 time(s)
Belarus


Отменно, башкотрясно.
Go to the top of the page
  Insert nick Quick quote
+Quote Post
post May 24 2020, 16:24:07
Post #7

Восемь Литров
********
Group: Металариец
Posts: 807
Releases: 0
From: South Of Heaven
On Forums: 12 years 9 months
Thanks: 368 time(s)
Ukraine


Очень хорошо однако (IMG:style_emoticons/default/metaler.gif)


Thanks:
Go to the top of the page
  Insert nick Quick quote
+Quote Post
post May 25 2020, 08:47:19
Post #8

Правь статус, ####!111
**************
Group: Металариец
Posts: 3,001
Releases: 8
From: Dnipro
On Forums: 11 years 10 months
Thanks: 970 time(s)
Ukraine


ЦИТАТА(dimpa @ May 24 2020, 11:14:51) *
Отменно, башкотрясно.

Как и предыдущий у них.


Thanks:
Go to the top of the page
  Insert nick Quick quote
+Quote Post

Reply to this topicStart new topic
2 User(s) are reading this topic (2 Guests and 0 Anonymous Users)
0 Members:

 



- Lo-Fi Version Support form
Copyrights and abuse reports form
Time is now: 28th May 2020 - 13:01:47