Welcome Guest ( Log In | Register )

> Releases Upload / Добавление релизов

Добавить релиз тут / Click here to add release
Рекомендованные обменники / Recommended file shares

> Blood River - Three Stories For Sleepless Nights [ep] (2020), Melodic Death Metal
post May 23 2020, 00:01:40
Post #1

Правь статус, ####!111
**************
Group: Металариец
Posts: 21,932
Releases: 15131
From: Г.Харьков
On Forums: 8 years 3 weeks
Thanks: 274577 time(s)
Unknown


(IMG:https://metalarea.org/images/audiocovers/2020_May/acov_tid337974_thumb.jpg)

*Artist: Blood River
*Album: Three Stories For Sleepless Nights [ep]
*Year: 2020
*Genre: Melodic Death Metal
*Country: Chile (IMG:https://metalarea.org/forum/style_images/flags/Chile.png)
*Format: mp3@CBR320kbps
*Size: 32MB

Tracklist:
1. Human Extermination 04:07
2. In the Depths of the River 04:03
3. The Black Horseman 05:42
******************************
Total playing time: 13:52




Extended info
Francisco Molina : Guitarra lider y Voz
Matías Sáez: Teclado
Jaime Navarro: Guitarra Rítmica
Diego Salazar: Bajo
Mauricio Vargas: Batería


Technical info
(IMG:https://metalarea.org/images/spectrogram/2020_May/065bc905746a0db73b3b0c4ece7f12e7.png)
Input File: 02 In the Depths of the River.mp3
Channels : 2
Sample Rate : 44100
Precision : 16-bit
Duration : 00:04:03.81 = 10752197 samples = 18286 CDDA sectors
File Size : 9.97M
Bit Rate : 327k
Sample Encoding: MPEG audio (layer I, II or III)
Comments :
Title=In the Depths of the River
Artist=Blood River
Album=Three Stories for Sleepless Nights
Tracknumber=2/3
Year=2020-20-20
Genre=Metal
Discnumber=1/1



Register


Go to the top of the page
  Insert nick Quick quote
+Quote Post
 
Start new topic
Replies (1 - 1)
post May 23 2020, 08:31:01
Post #2

hearer & reader
**************
Group: Металариец
Posts: 8,703
Releases: 140
From: Moscow
On Forums: 12 years 8 months
Thanks: 8741 time(s)
Russian Federation


https://music.yandex.ru/album/9803785
Неплохо, совсем неплохо.
Go to the top of the page
  Insert nick Quick quote
+Quote Post

Reply to this topicStart new topic
1 User(s) are reading this topic (1 Guests and 0 Anonymous Users)
0 Members:

 



- Lo-Fi Version Support form
Copyrights and abuse reports form
Time is now: 3rd June 2020 - 01:12:38