Welcome Guest ( Log In | Register )

> Releases Upload / Добавление релизов

Добавить релиз тут / Click here to add release
Рекомендованные обменники / Recommended file shares

 
Reply to this topicStart new topic
> Criogenesi - The Human Parasite [ep] (2020), Death Metal
post May 23 2020, 01:13:44
Post #1

Правь статус, ####!111
**************
Group: Металариец
Posts: 21,866
Releases: 15074
From: Г.Харьков
On Forums: 8 years 2 weeks
Thanks: 273180 time(s)
Unknown


(IMG:https://metalarea.org/images/audiocovers/2020_May/acov_tid337975_thumb.jpg)

*Artist: Criogenesi
*Album: The Human Parasite [ep]
*Year: 2020
*Genre: Death Metal
*Country: Italy (IMG:https://metalarea.org/forum/style_images/flags/Italy.png)
*Format: mp3@CBR320kbps
*Size: 24MB

Tracklist:
1. The Human Parasite 02:38
2. Quarantine 04:43
3. Worms Reign Over the World 02:57
******************************
Total playing time: 10:18




Extended info
Luca Guitars, Bass
See also: Blackened Symphony, Tana del Lupo, ex-Black Simphony
Giulio Guitars, Bass
See also: Blackened Symphony, Tana del Lupo, ex-Tamriel, ex-Black Simphony, Madman (Ita), Stonegate, Vinterblåst, ex-Assaltator
Max Vocals
See also: Blackened Symphony, ex-Tamriel, ex-Black Simphony, Gravecult, ex-Assaltator


Technical info
(IMG:https://metalarea.org/images/spectrogram/2020_May/8f89871d8472cc275530f04118fd9812.png)
Input File: Criogenesi - THE HUMAN PARASITE - 02 Quarantine.mp3
Channels : 2
Sample Rate : 44100
Precision : 16-bit
Duration : 00:04:43.97 = 12522901 samples = 21297.5 CDDA sectors
File Size : 11.5M
Bit Rate : 324k
Sample Encoding: MPEG audio (layer I, II or III)
Comments :
Title=Quarantine
Artist=Criogenesi
Album=THE HUMAN PARASITE
Tracknumber=2
Year=2020



Register


Go to the top of the page
  Insert nick Quick quote
+Quote Post

Reply to this topicStart new topic
2 User(s) are reading this topic (2 Guests and 0 Anonymous Users)
0 Members:

 



- Lo-Fi Version Support form
Copyrights and abuse reports form
Time is now: 28th May 2020 - 13:08:13