Welcome Guest ( Log In | Register )

> Releases Upload / Добавление релизов

Добавить релиз тут / Click here to add release
Рекомендованные обменники / Recommended file shares

 
Reply to this topicStart new topic
> Bosque Cenizas - Guerra De La Ignorancia [ep] (2020), Black Metal
post May 23 2020, 02:15:08
Post #1

Правь статус, ####!111
**************
Group: Металариец
Posts: 21,865
Releases: 15074
From: Г.Харьков
On Forums: 8 years 2 weeks
Thanks: 273166 time(s)
Unknown


(IMG:https://metalarea.org/images/audiocovers/2020_May/acov_tid337976_thumb.jpg)

*Artist: Bosque Cenizas
*Album: Guerra De La Ignorancia [ep]
*Year: 2020
*Genre: Black Metal
*Country: Chile (IMG:https://metalarea.org/forum/style_images/flags/Chile.png)
*Format: mp3@CBR320kbps
*Size: 68MB

Tracklist:
1. Guerra de la Ignorancia 05:59
2. La Bestia Que Eres 04:20
3. Creemos Lo Que Queremos Creer 07:03
4. Humano Demasiado Humano 04:57
5. Bosque Cenizas 05:40
******************************
Total playing time: 27:59



Extended info
Patricio Dosque: Voces
Mauro Gajardo: Batería
Alejandro Naranjo:Bajo
Raúl Muñoz: Guitarra
Benjamin Segura: Guitarra


Technical info
(IMG:https://metalarea.org/images/spectrogram/2020_May/624664ece532e85a9fca1181f5a2b50c.png)
Input File: 03 Creemos Lo Que Queremos Creer.mp3
Channels : 2
Sample Rate : 44100
Precision : 16-bit
Duration : 00:07:03.31 = 18668015 samples = 31748.3 CDDA sectors
File Size : 17.7M
Bit Rate : 335k
Sample Encoding: MPEG audio (layer I, II or III)
Comments :
Title=Creemos Lo Que Queremos Creer
Artist=Bosque Cenizas
Album=Guerra de la Ignorancia
Tracknumber=3/5
Year=2020-20-20
Genre=Metal
Discnumber=1/1



Register


Go to the top of the page
  Insert nick Quick quote
+Quote Post

Reply to this topicStart new topic
2 User(s) are reading this topic (2 Guests and 0 Anonymous Users)
0 Members:

 



- Lo-Fi Version Support form
Copyrights and abuse reports form
Time is now: 28th May 2020 - 12:12:11