Welcome Guest ( Log In | Register )

> Releases Upload / Добавление релизов

Добавить релиз тут / Click here to add release
Рекомендованные обменники / Recommended file shares

 
Reply to this topicStart new topic
> Baader-Meinhof - Baader-Meinhof [single] (2020), Black/Doom Metal/Sludge
post May 23 2020, 02:21:11
Post #1

Group: Дух
Posts: 12
Releases: 2
On Forums: 1 year 4 months
Thanks: 27 time(s)
Unknown


(IMG:http://metalarea.org/images/audiocovers/2020_May/acov_tid337977_thumb.jpg)

*Artist: Baader-Meinhof
*Album: Baader-Meinhof [single]
*Year: 2020
*Genre: Black/Doom Metal/Sludge
*Country: United States (IMG:http://metalarea.org/forum/style_images/flags/United%20States.png)
*Format: mp3@CBR320kbps
*Size: 24MB

Tracklist:
1. Evil Lives 04:22
2. Stuck in the Hard Place 04:22
3. To the Grave 03:33
******************************
Total playing time: 12:17


(IMG:http://metalarea.org/images/youtube.png)

Technical info
(IMG:http://metalarea.org/images/spectrogram/2020_May/179180465d24856a94f7f5cf3f4e0925.png)
Input File: 03 To the Grave.mp3
Channels : 2
Sample Rate : 44100
Precision : 16-bit
Duration : 00:03:29.69 = 9247241 samples = 15726.6 CDDA sectors
File Size : 8.39M
Bit Rate : 320k
Sample Encoding: MPEG audio (layer I, II or III)
Comments :
Title=To the Grave
Artist=Baader-Meinhof
Album=Baader-Meinhof - Single
Tracknumber=3
Year=2020-05-23T12:11
Genre=9
Discnumber=1/1



Register


This post has been edited by IronMan: May 23 2020, 22:33:06


Go to the top of the page
  Insert nick Quick quote
+Quote Post

Reply to this topicStart new topic
1 User(s) are reading this topic (1 Guests and 0 Anonymous Users)
0 Members:

 



- Lo-Fi Version Support form
Copyrights and abuse reports form
Time is now: 31st May 2020 - 03:57:06