Welcome Guest ( Log In | Register )

> Releases Upload / Добавление релизов

Добавить релиз тут / Click here to add release
Рекомендованные обменники / Recommended file shares

> Dark Divinity - Messianic [ep] (2020), Melodic Death Metal
post May 23 2020, 02:47:38
Post #1

Правь статус, ####!111
**************
Group: Металариец
Posts: 21,875
Releases: 15079
From: Г.Харьков
On Forums: 8 years 2 weeks
Thanks: 273337 time(s)
Unknown


(IMG:https://metalarea.org/images/audiocovers/2020_May/acov_tid337978_thumb.jpg)

*Artist: Dark Divinity
*Album: Messianic [ep]
*Year: 2020
*Genre: Melodic Death Metal
*Country: New Zealand (IMG:https://metalarea.org/forum/style_images/flags/New%20Zealand.png)
*Format: mp3@CBR320kbps
*Size: 45MB

Tracklist:
1. Set in Stone 03:45
2. Vertigo 04:32
3. Cambion 01:22
4. Night of the Witches 04:03
5. Seasons of Dark 04:10
******************************
Total playing time: 17:52




Extended info
Dave Grinder Bass
See also: ex-Damned Age, ex-Rad-X, ex-Intergracia, ex-Nullifier, ex-Anomalos, ex-Caustic Holocaust
Ian Moir Drums
Paul Stewart Guitars
Reece Davies Guitars
Jolene Tempest Vocals
See also: ex-Zirconium, ex-Bulletbelt


Technical info
(IMG:https://metalarea.org/images/spectrogram/2020_May/9480412092850480deb52fcd894168c1.png)
Input File: 02 Vertigo.mp3
Channels : 2
Sample Rate : 44100
Precision : 16-bit
Duration : 00:04:32.55 = 12019455 samples = 20441.2 CDDA sectors
File Size : 11.7M
Bit Rate : 342k
Sample Encoding: MPEG audio (layer I, II or III)
Comments :
Title=Vertigo
Artist=Dark Divinity
Album=Messianic
Tracknumber=2/5
Year=2020-20-20
Genre=Metal
Discnumber=1/1



Register


Go to the top of the page
  Insert nick Quick quote
+Quote Post
 
Start new topic
Replies (1 - 1)
post May 23 2020, 12:43:39
Post #2

hearer & reader
**************
Group: Металариец
Posts: 8,695
Releases: 140
From: Moscow
On Forums: 12 years 8 months
Thanks: 8712 time(s)
Russian Federation


Register


Thanks:
Go to the top of the page
  Insert nick Quick quote
+Quote Post

Reply to this topicStart new topic
2 User(s) are reading this topic (2 Guests and 0 Anonymous Users)
0 Members:

 



- Lo-Fi Version Support form
Copyrights and abuse reports form
Time is now: 28th May 2020 - 18:50:13