Welcome Guest ( Log In | Register )

> Releases Upload / Добавление релизов

Добавить релиз тут / Click here to add release
Рекомендованные обменники / Recommended file shares

 
Reply to this topicStart new topic
> Dead Sentry - Dead Sentry (2020), Thrash Metal
post May 23 2020, 03:53:29
Post #1

Правь статус, ####!111
**************
Group: Металариец
Posts: 21,875
Releases: 15083
From: Г.Харьков
On Forums: 8 years 2 weeks
Thanks: 273352 time(s)
Unknown


(IMG:https://metalarea.org/images/audiocovers/2020_May/acov_tid337980_thumb.jpg)

*Artist: Dead Sentry
*Album: Dead Sentry
*Year: 2020
*Genre: Thrash Metal
*Country: Canada (IMG:https://metalarea.org/forum/style_images/flags/Canada.png)
*Format: mp3@CBR320kbps
*Size: 69MB

Tracklist:
1. The Crown 03:56
2. Sacred Soil 05:12
3. Where Next to Kill? 05:18
4. The Body and the Brain 04:31
5. Inhuman Perfection 05:34
6. (Epilogue) The Inhuman Perfected 02:23
7. Psymphony 02:41
******************************
Total playing time: 29:35




Extended info
Stefan Smith All instruments, Vocals (2018-present)
See also: ex-Occisor


Technical info
(IMG:https://metalarea.org/images/spectrogram/2020_May/68cf4ee4ebfc31ab068992d0b8f173de.png)
Input File: Dead Sentry - Dead Sentry - 03 Where Next to Kill-.mp3
Channels : 2
Sample Rate : 44100
Precision : 16-bit
Duration : 00:05:18.58 = 14049378 samples = 23893.5 CDDA sectors
File Size : 12.9M
Bit Rate : 324k
Sample Encoding: MPEG audio (layer I, II or III)
Comments :
Title=Where Next to Kill?
Artist=Dead Sentry
Album=Dead Sentry
Tracknumber=3
Year=2020



Register


Go to the top of the page
  Insert nick Quick quote
+Quote Post

Reply to this topicStart new topic
2 User(s) are reading this topic (2 Guests and 0 Anonymous Users)
0 Members:

 



- Lo-Fi Version Support form
Copyrights and abuse reports form
Time is now: 28th May 2020 - 20:27:30