Welcome Guest ( Log In | Register )

> Releases Upload / Добавление релизов

Добавить релиз тут / Click here to add release
Рекомендованные обменники / Recommended file shares

 
Reply to this topicStart new topic
> Hybrid Moon - Esolve (2020), Death/Thrash Metal
post May 23 2020, 04:11:05
Post #1

Правь статус, ####!111
**************
Group: Металариец
Posts: 21,866
Releases: 15074
From: Г.Харьков
On Forums: 8 years 2 weeks
Thanks: 273177 time(s)
Unknown


(IMG:https://metalarea.org/images/audiocovers/2020_May/acov_tid337981_thumb.jpg)

*Artist: Hybrid Moon
*Album: Esolve
*Year: 2020
*Genre: Death/Thrash Metal
*Country: Spain (IMG:https://metalarea.org/forum/style_images/flags/Spain.png)
*Format: mp3@CBR320kbps
*Size: 141MB

Tracklist:
1. The Call 04:54
2. Discarded 04:01
3. Love 06:40
4. What Have We Become 05:22
5. From the Ashes 05:25
6. When Life Means More 06:25
7. Choice 04:56
8. Violence 04:40
9. Die to Begin 05:14
10. Name on a Stone 06:42
11. Broken Promises 06:57
******************************
Total playing time: 1:01:16




Extended info
Juanan Bass
Terro Drums
Mante Guitars
Soraya Guitars
Iban Vocals


Technical info
(IMG:https://metalarea.org/images/spectrogram/2020_May/f5f77aa517f56dc1c5cd6245466a7bdd.png)
Input File: Hybrid Moon - Evolve - 04 What Have We Become.mp3
Channels : 2
Sample Rate : 44100
Precision : 16-bit
Duration : 00:05:22.47 = 14221059 samples = 24185.5 CDDA sectors
File Size : 13.0M
Bit Rate : 322k
Sample Encoding: MPEG audio (layer I, II or III)
Comments :
Title=What Have We Become
Artist=Hybrid Moon
Album=Evolve
Tracknumber=4
Year=2020



Register


Go to the top of the page
  Insert nick Quick quote
+Quote Post

Reply to this topicStart new topic
2 User(s) are reading this topic (2 Guests and 0 Anonymous Users)
0 Members:

 



- Lo-Fi Version Support form
Copyrights and abuse reports form
Time is now: 28th May 2020 - 13:06:13