Welcome Guest ( Log In | Register )

> Releases Upload / Добавление релизов

Добавить релиз тут / Click here to add release
Рекомендованные обменники / Recommended file shares

> Ruin - Plague Transmissions: Vol. 2 [compilation] (2020), Old School Death Metal (D)
post May 23 2020, 04:28:34
Post #1

Правь статус, ####!111
**************
Group: Металариец
Posts: 21,875
Releases: 15079
From: Г.Харьков
On Forums: 8 years 2 weeks
Thanks: 273323 time(s)
Unknown


(IMG:https://metalarea.org/images/audiocovers/2020_May/acov_tid337982_thumb.jpg)

*Artist: Ruin
*Album: Plague Transmissions: Vol. 2 [compilation]
*Year: 2020
*Genre: Old School Death Metal
*Country: United States (IMG:https://metalarea.org/forum/style_images/flags/United%20States.png)
*Format: mp3@CBR320kbps
*Size: 143MB

Tracklist:
1. Into Endless Chasms 03:15
2. Manifestation 04:08
3. Crushing Insects 04:52
4. Deep Wounds 02:43
5. Where Monsters Hide 02:54
6. The Weak Will Hang 01:58
7. Crushed By Depths Of Darkness 03:26
8. That Holy Spirit Feeling 02:52
9. Orgasmic Catharsis 02:21
10. Leaves From The Tree Of Death 02:57
11. Pulverize Remains 03:45
12. I Love Blood 04:07
13. Stab Wounds 02:27
14. Burnt Bone And Ash 04:13
15. Trapped In Relentless Terror 04:35
16. Starving Dementia 01:57
17. Humiliation At Birth 02:57
18. Eternal Curse Of Rotten Beings 03:37
******************************
Total playing time: 59:04




Extended info
Mihail Jason Satan Guitars (1990-1991, 2015-2018), Vocals (2015-present)
D-Muerte Drums (2015-present)
See also: Aeternum, Oscuros, ex-Bourn Ultra, ex-Mictlantecuhtli, ex-Consuming Fire (live)
Spine Bass (2018-present)
Destroy Guitars (2018-present)
Carsten Brix Guitars (lead) (2018-present)
See also: Destroyed in Seconds, Necrosic, Vrenth, ex-Purgatory's Gate, ex-Gravehill


Technical info
(IMG:https://metalarea.org/images/spectrogram/2020_May/d5df92233f763d8c0c18b619324e72af.png)
Input File: 03. Crushing Insects.mp3
Channels : 2
Sample Rate : 44100
Precision : 16-bit
Duration : 00:04:52.88 = 12915920 samples = 21965.9 CDDA sectors
File Size : 12.1M
Bit Rate : 331k
Sample Encoding: MPEG audio (layer I, II or III)
Comments :
Title=Crushing Insects
Artist=Ruin
Album=Plague Transmissions: Vol. 2
Tracknumber=3
Year=2020
Genre=OSDM



Register


Go to the top of the page
  Insert nick Quick quote
+Quote Post
 
Start new topic
Replies (1 - 1)
post May 23 2020, 08:18:23
Post #2

Шесть Литров
******
Group: Металариец
Posts: 593
Releases: 0
From: APATIN, SERBIA, АПАТИН, СЕРБИЯ
On Forums: 12 years 7 months
Thanks: 905 time(s)



Flac

Register


Go to the top of the page
  Insert nick Quick quote
+Quote Post

Reply to this topicStart new topic
2 User(s) are reading this topic (2 Guests and 0 Anonymous Users)
0 Members:

 



- Lo-Fi Version Support form
Copyrights and abuse reports form
Time is now: 28th May 2020 - 18:17:43