Welcome Guest ( Log In | Register )

> Releases Upload / Добавление релизов

Добавить релиз тут / Click here to add release
Рекомендованные обменники / Recommended file shares

 
Reply to this topicStart new topic
> Deathing - All Hail The Decay [ep] (2020), Death Metal
post May 23 2020, 04:49:56
Post #1

Правь статус, ####!111
**************
Group: Металариец
Posts: 21,896
Releases: 15100
From: Г.Харьков
On Forums: 8 years 2 weeks
Thanks: 273916 time(s)
Unknown


(IMG:https://metalarea.org/images/audiocovers/2020_May/acov_tid337983_thumb.jpg)

*Artist: Deathing
*Album: All Hail The Decay [ep]
*Year: 2020
*Genre: Death Metal
*Country: Finland (IMG:https://metalarea.org/forum/style_images/flags/Finland.png)
*Format: mp3@CBR320kbps
*Size: 38MB

Tracklist:
1. Kings of Terror 03:49
2. Crash & Burn 04:01
3. Dead World Alive 03:37
4. Sickness 01:39
5. Blinded by Fear (At the Gates cover) 02:35
******************************
Total playing time: 15:41




Extended info
Marko Mäkinen: Vocals & Guitars
Mikko Kivimäki: Drums
Rami Vartiainen: Bass
Aleksi Tossavainen: Guitars



Technical info
(IMG:https://metalarea.org/images/spectrogram/2020_May/dd9ad43fc8a435e2bf92d83d472c444e.png)
Input File: 03 Dead World Alive.mp3
Channels : 2
Sample Rate : 44100
Precision : 16-bit
Duration : 00:03:37.14 = 9575918 samples = 16285.6 CDDA sectors
File Size : 9.09M
Bit Rate : 335k
Sample Encoding: MPEG audio (layer I, II or III)
Comments :
Title=Dead World Alive
Artist=Deathing
Album=All Hail the Decay
Tracknumber=3/5
Year=2020-20-20
Genre=Metal
Discnumber=1/1



Register


Go to the top of the page
  Insert nick Quick quote
+Quote Post

Reply to this topicStart new topic
1 User(s) are reading this topic (1 Guests and 0 Anonymous Users)
0 Members:

 



- Lo-Fi Version Support form
Copyrights and abuse reports form
Time is now: 31st May 2020 - 03:52:20