Welcome Guest ( Log In | Register )

> Releases Upload / Добавление релизов

Добавить релиз тут / Click here to add release
Рекомендованные обменники / Recommended file shares

> Subsignal - A Song For The Homeless – Live In Rüsselsheim 2019 [live] (2020), Progressive Metal/Rock (D6)
post May 23 2020, 06:19:47
Post #1

hearer & reader
**************
Group: Металариец
Posts: 8,695
Releases: 140
From: Moscow
On Forums: 12 years 8 months
Thanks: 8713 time(s)
Russian Federation


(IMG:http://metalarea.org/images/audiocovers/2020_May/acov_tid337986_thumb.jpg)

*Artist: Subsignal
*Album: A Song For The Homeless – Live In Rüsselsheim 2019 [live]
*Year: 2020
*Genre: Progressive Metal/Rock
*Country: Germany (IMG:http://metalarea.org/forum/style_images/flags/Germany.png)
*Format: mp3@CBR320kbps
*Size: 174MB

Tracklist:
1. Touchstones 07:59
2. Ashes Of Summer 05:36
3. The Bells Of Lyonesse 05:05
4. The Sea 07:07
5. Walking With Ghosts 07:48
6. Even Though The Stars Don't Shine 04:59
7. The Passage / Drum Solo 010:21
8. La Muerta 06:05
9. My Sanctuary 05:28
10. Time & Again 01:10
11. Paraso 04:51
12. Paradigm 07:18
******************************
Total playing time: 1:13:47


Preview 2
Preview 3

Extended info


Technical info
(IMG:http://metalarea.org/images/spectrogram/2020_May/0186a81dbfd40dc9ca3028469f395523.png)
Input File: 02 - Ashes of Summer.mp3
Channels : 2
Sample Rate : 44100
Precision : 16-bit
Duration : 00:01:00.06 = 2648558 samples = 4504.35 CDDA sectors
File Size : 2.40M
Bit Rate : 320k
Sample Encoding: MPEG audio (layer I, II or III)
Comments :
Title=Ashes of Summer
Artist=SubSignal [Germany]
Album=A Song for the Homeless (Live in Russelsheim 2019)
Tracknumber=02
Year=2020
Genre=Progressive Metal/Rock



Register


Go to the top of the page
  Insert nick Quick quote
+Quote Post
 
Start new topic
Replies (1 - 5)
post May 26 2020, 20:11:58
Post #2

Правь статус, ####!111
**************
Group: Металариец
Posts: 2,118
Releases: 0
From: Харьков
On Forums: 10 years 8 months
Thanks: 975 time(s)
Ukraine


Со временем потерял интерес к ним. Слащаво и никакого развития, к тому же.
Go to the top of the page
  Insert nick Quick quote
+Quote Post
post May 26 2020, 22:16:53
Post #3

21st Century Schizoid Man
**************
Group: Металариец
Posts: 6,446
Releases: 79
From: Moscow
On Forums: 12 years 3 weeks
Thanks: 5295 time(s)
Russian Federation


Фактически этот проект был вариантом позднего Sieges Even, то есть развития не предполагал с самого начала. Самые яркие и цепляющие альбомы — два первых. Но дальнейшие альбомы у меня тоже понемногу раскрываются. Ну а лайв не нужен, конечно.


Thanks:
(2) Ghostb, Rhoads,
Go to the top of the page
  Insert nick Quick quote
+Quote Post
post Yesterday, 13:10:51
Post #4

Правь статус, ####!111
**************
Group: Металариец
Posts: 2,118
Releases: 0
From: Харьков
On Forums: 10 years 8 months
Thanks: 975 time(s)
Ukraine


ЦИТАТА(Yarri @ May 27 2020, 00:16:53) *
позднего Sieges Even

У них, кстати, предпочту период 91-97 гг., последние все же страдают некоторым занудством (как и этот проект), хотя и не без ярких вещей/моментов, конечно.
Go to the top of the page
  Insert nick Quick quote
+Quote Post
post Today, 10:32:16
Post #5

21st Century Schizoid Man
**************
Group: Металариец
Posts: 6,446
Releases: 79
From: Moscow
On Forums: 12 years 3 weeks
Thanks: 5295 time(s)
Russian Federation


Ghostb,
Околоджазовый период. Мне он как раз быстрее приелся, как и 7for4, проект Ценка. А вот 2005/2007 с удовольствием всегда слушаю. И, учитывая мощнейшую ритм-секцию, даже предпочитаю Subsignal'у.
Go to the top of the page
  Insert nick Quick quote
+Quote Post
post Today, 12:29:58
Post #6

Правь статус, ####!111
**************
Group: Металариец
Posts: 2,118
Releases: 0
From: Харьков
On Forums: 10 years 8 months
Thanks: 975 time(s)
Ukraine


ЦИТАТА(Yarri @ May 28 2020, 12:32:16) *
7for4, проект Ценка

Вот его, кстати, не слышал. Но если там чистый инструментал, то не так интересно.

ЦИТАТА(Yarri @ May 28 2020, 12:32:16) *
мощнейшую ритм-секцию

Ну, это да. У братьев Хольцварт еще был недолго проживший проект Looking-Glass-Self со Штеффеном на гитаре и покойным Андре Матосом (Angra, Shaman, Avantasia и т.д.) на вокале, вот его я б послушал, явно предпочту его Мензесу.

Go to the top of the page
  Insert nick Quick quote
+Quote Post

Reply to this topicStart new topic
2 User(s) are reading this topic (2 Guests and 0 Anonymous Users)
0 Members:

 



- Lo-Fi Version Support form
Copyrights and abuse reports form
Time is now: 28th May 2020 - 19:02:33