Welcome Guest ( Log In | Register )

> Releases Upload / Добавление релизов

Добавить релиз тут / Click here to add release
Рекомендованные обменники / Recommended file shares

 
Reply to this topicStart new topic
> Ancient Gate - Empire Beyond Dusk (2020), Black Metal
post May 23 2020, 06:37:57
Post #1

Правь статус, ####!111
**************
Group: Металариец
Posts: 2,810
Releases: 2514
From: Одесса
On Forums: 12 years 5 hours
Thanks: 23914 time(s)
Ukraine


(IMG:http://metalarea.org/images/audiocovers/2020_May/acov_tid337987_thumb.jpg)

*Artist: Ancient Gate
*Album: Empire Beyond Dusk
*Year: 2020
*Genre: Black Metal
*Country: Argentina (IMG:http://metalarea.org/forum/style_images/flags/Argentina.png)
*Format: mp3@CBR320kbps
*Size: 135MB

Tracklist:
1. Moonfrost and Black Skies (Intro) 01:09 instrumental
2. In Mournful Winds 06:10
3. Forsaken Realms 05:47
4. Journey Through Astral Landscapes 07:05
5. Empire Beyond Dusk 06:42
6. Maze of Centuries 05:35
7. Nightfall at the Autumnal Forest 06:07
8. Memories of the Forgotten Land 03:00 instrumental
9. Rebirth of the Ancient Spirit 07:12
10. A Dream of Frozen Echoes (Outro) 02:36 instrumental
11. My Supremacy (The Eye cover) 05:35
******************************
Total playing time: 56:58



Technical info
(IMG:http://metalarea.org/images/spectrogram/2020_May/c4fb39a47469cca3a918598646de4c7d.png)
Input File: 02. In mournful winds.mp3
Channels : 2
Sample Rate : 44100
Precision : 16-bit
Duration : 00:06:10.34 = 16331774 samples = 27775.1 CDDA sectors
File Size : 14.8M
Bit Rate : 320k
Sample Encoding: MPEG audio (layer I, II or III)
Comments :
Title=In mournful winds
Artist=Ancient Gate
Album=Empire Beyond Dusk
Tracknumber=2
Year=2020
Genre=138



Register


Go to the top of the page
  Insert nick Quick quote
+Quote Post

Reply to this topicStart new topic
1 User(s) are reading this topic (1 Guests and 0 Anonymous Users)
0 Members:

 



- Lo-Fi Version Support form
Copyrights and abuse reports form
Time is now: 3rd June 2020 - 00:51:06