Welcome Guest ( Log In | Register )

> Releases Upload / Добавление релизов

Добавить релиз тут / Click here to add release
Рекомендованные обменники / Recommended file shares

 
Reply to this topicStart new topic
> Rest In Chaos - Trapped By Yourself (2020), Thrash Metal/Hardcore
post May 23 2020, 07:31:11
Post #1

Правь статус, ####!111
**************
Group: Металариец
Posts: 21,865
Releases: 15074
From: Г.Харьков
On Forums: 8 years 2 weeks
Thanks: 273171 time(s)
Unknown


(IMG:https://metalarea.org/images/audiocovers/2020_May/acov_tid337990_thumb.jpg)

*Artist: Rest In Chaos
*Album: Trapped By Yourself
*Year: 2020
*Genre: Thrash Metal/Hardcore
*Country: Brazil (IMG:https://metalarea.org/forum/style_images/flags/Brazil.png)
*Format: mp3@CBR320kbps
*Size: 62MB

Tracklist:
1. I Need A Reset 02:38
2. Shallow Happiness 02:43
3. Let Me Rest 02:36
4. Bells of Destruction 02:29
5. Worship Machines 02:55
6. The Perfection 02:54
7. Ego Riser 02:53
8. Artificial 02:46
9. Look At Me 02:36
10. Unfollow 02:08
******************************
Total playing time: 26:38




Extended info
Marlon Joy Drums (2016-present)
See also: ex-Homicide, ex-Morpture
Juliano dos Santos Guitars (2016-present)
Gustavo Novloski Vocals (2016-present)
See also: Deadpan
Adriano Alves Bass (2017-present)



Technical info
(IMG:https://metalarea.org/images/spectrogram/2020_May/6ce9dc9a69e6392372615165cd6402a0.png)
Input File: Rest In Chaos - Trapped By Yourself - 04 Bells of Destruction.mp3
Channels : 2
Sample Rate : 44100
Precision : 16-bit
Duration : 00:02:29.82 = 6607062 samples = 11236.5 CDDA sectors
File Size : 6.12M
Bit Rate : 327k
Sample Encoding: MPEG audio (layer I, II or III)
Comments :
Title=Bells of Destruction
Artist=Rest In Chaos
Album=Trapped By Yourself
Tracknumber=4
Year=2020



Register


Go to the top of the page
  Insert nick Quick quote
+Quote Post

Reply to this topicStart new topic
2 User(s) are reading this topic (2 Guests and 0 Anonymous Users)
0 Members:

 



- Lo-Fi Version Support form
Copyrights and abuse reports form
Time is now: 28th May 2020 - 12:28:56