Welcome Guest ( Log In | Register )

> Releases Upload / Добавление релизов

Добавить релиз тут / Click here to add release
Рекомендованные обменники / Recommended file shares

 
Reply to this topicStart new topic
> Wombcage - Grafting The Rot (2020), Death Metal
post May 23 2020, 10:03:57
Post #1

Правь статус, ####!111
**************
Group: Металариец
Posts: 21,896
Releases: 15100
From: Г.Харьков
On Forums: 8 years 2 weeks
Thanks: 273917 time(s)
Unknown


(IMG:https://metalarea.org/images/audiocovers/2020_May/acov_tid337993_thumb.jpg)

*Artist: Wombcage
*Album: Grafting The Rot
*Year: 2020
*Genre: Death Metal
*Country: United States (IMG:https://metalarea.org/forum/style_images/flags/United%20States.png)
*Format: mp3@CBR320kbps
*Size: 79MB

Tracklist:
1. Bestial Instinct 00:55
2. Grafting the Rot 03:21
3. Lurker Unleashed 03:35
4. Putrid Throne 03:16
5. Feasting Horde 02:35
6. Blood Swamp 03:57
7. Eviscerated Glory 02:57
8. Gore Pit 02:46
9. Crypt Creeper 03:38
10. Painted Skulls 04:30
******************************
Total playing time: 31:30



Technical info
(IMG:https://metalarea.org/images/spectrogram/2020_May/0d42a2e29f63261722b1aaa4d7b19523.png)
Input File: Wombcage - Grafting the Rot - 03. Lurker Unleashed.mp3
Channels : 2
Sample Rate : 44100
Precision : 16-bit
Duration : 00:03:35.73 = 9513869 samples = 16180 CDDA sectors
File Size : 9.33M
Bit Rate : 346k
Sample Encoding: MPEG audio (layer I, II or III)
Comments :
Title=Lurker Unleashed
Artist=Wombcage
Album=Grafting the Rot
Tracknumber=3
Year=2020
Genre=Death Metal



Register


Go to the top of the page
  Insert nick Quick quote
+Quote Post

Reply to this topicStart new topic
1 User(s) are reading this topic (1 Guests and 0 Anonymous Users)
0 Members:

 



- Lo-Fi Version Support form
Copyrights and abuse reports form
Time is now: 31st May 2020 - 04:29:13