Welcome Guest ( Log In | Register )

> Releases Upload / Добавление релизов

Добавить релиз тут / Click here to add release
Рекомендованные обменники / Recommended file shares

> Sederai Mutilation - Agony Of Borneo (2020), Brutal Death Metal
post May 23 2020, 15:31:37
Post #1

MDM-Thrash Metal
**************
Group: Металариец
Posts: 9,522
Releases: 861
From: Одесса
On Forums: 12 years 9 months
Thanks: 22623 time(s)
Ukraine


(IMG:http://metalarea.org/images/audiocovers/2020_May/acov_tid337996_thumb.jpg)

*Artist: Sederai Mutilation
*Album: Agony Of Borneo
*Year: 2020
*Genre: Brutal Death Metal
*Country: Indonesia (IMG:http://metalarea.org/forum/style_images/flags/Indonesia.png)
*Format: mp3@CBR320kbps
*Size: 84MB

Tracklist:
01. Impending Destruction (Intro)
02. Emas Hitam Pualu Bormeo
03. Murka Dunia
04. Human Rotten
05. Membunuh Atau Mati
06. Kerusakan Organ Otak
07. Jeritan Kesakitan
08. Carcass Amputated
09. Infected Agony
******************************
Total playing time: 34:05



(IMG:http://metalarea.org/images/youtube.png)

Extended info
Putra Riezky Everything
See also: Kropos


Technical info
(IMG:http://metalarea.org/images/spectrogram/2020_May/d98988d4913e3e8befe56798767358ca.png)
Input File: 02. EMAS HITAM PUALU BORMEO.mp3
Channels : 2
Sample Rate : 44100
Precision : 16-bit
Duration : 00:03:41.59 = 9771943 samples = 16619 CDDA sectors
File Size : 9.06M
Bit Rate : 327k
Sample Encoding: MPEG audio (layer I, II or III)
Comments :
Title=EMAS HITAM PUALU BORMEO
Artist=Sederai Mutilation
Album=Agony of Borneo
Tracknumber=2
Year=2020
Genre=Brutal Death



Register


Go to the top of the page
  Insert nick Quick quote
+Quote Post
 
Start new topic
Replies (1 - 2)
post May 24 2020, 09:09:36
Post #2

Шесть Литров
******
Group: Металариец
Posts: 597
Releases: 0
From: APATIN, SERBIA, АПАТИН, СЕРБИЯ
On Forums: 12 years 7 months
Thanks: 912 time(s)



Flac

Register


Thanks:
Go to the top of the page
  Insert nick Quick quote
+Quote Post
post May 26 2020, 08:20:20
Post #3

Литр
*
Group: Подсевший
Posts: 69
Releases: 0
From: Москва
On Forums: 13 years 7 months
Thanks: 17 time(s)
Russian Federation


Ничем не примечательный материал с кастрюльной драм-машиной. Только для ценителей жанра.
Go to the top of the page
  Insert nick Quick quote
+Quote Post

Reply to this topicStart new topic
1 User(s) are reading this topic (1 Guests and 0 Anonymous Users)
0 Members:

 



- Lo-Fi Version Support form
Copyrights and abuse reports form
Time is now: 31st May 2020 - 05:53:33