Welcome Guest ( Log In | Register )

> Releases Upload / Добавление релизов

Добавить релиз тут / Click here to add release
Рекомендованные обменники / Recommended file shares

 
Reply to this topicStart new topic
> Barang - Ancestral Bakasi Pakal Masaker (2020), Brutal Death Metal
post May 23 2020, 15:39:29
Post #1

MDM-Thrash Metal
**************
Group: Металариец
Posts: 9,534
Releases: 865
From: Одесса
On Forums: 12 years 9 months
Thanks: 22652 time(s)
Ukraine


(IMG:http://metalarea.org/images/audiocovers/2020_May/acov_tid337997_thumb.jpg)

*Artist: Barang
*Album: Ancestral Bakasi Pakal Masaker
*Year: 2020
*Genre: Brutal Death Metal
*Country: Philippines (IMG:http://metalarea.org/forum/style_images/flags/Philippines.png)
*Format: mp3@CBR320kbps
*Size: 77MB

Tracklist:
01. Intro
02. Larang Bakasi
03. Ayala Lagoon
04. Abiba Komentaryo
05. Mactan Newtown
06. Call Center
07. Lolo Nimo
08. Pinakupsang Baboy
09. Bangus Inun-Unam
******************************
Total playing time: 22:16




Technical info
(IMG:http://metalarea.org/images/spectrogram/2020_May/7ec86f195db87b0e5c0823c9af9f08f6.png)
Input File: 02. Larang Bakasi.mp3
Channels : 2
Sample Rate : 44100
Precision : 16-bit
Duration : 00:02:58.32 = 7864088 samples = 13374.3 CDDA sectors
File Size : 9.88M
Bit Rate : 443k
Sample Encoding: MPEG audio (layer I, II or III)
Comments :
Title=Larang Bakasi
Artist=Barang
Album=Ancestral Bakasi Pakal Masaker
Tracknumber=2
Year=2020
Genre=Brutal Death



Register


Go to the top of the page
  Insert nick Quick quote
+Quote Post

Reply to this topicStart new topic
1 User(s) are reading this topic (1 Guests and 0 Anonymous Users)
0 Members:

 



- Lo-Fi Version Support form
Copyrights and abuse reports form
Time is now: 3rd June 2020 - 01:13:34