Welcome Guest ( Log In | Register )

> Releases Upload / Добавление релизов

Добавить релиз тут / Click here to add release
Рекомендованные обменники / Recommended file shares

 
Reply to this topicStart new topic
> Kardashev - Progression [demo] (2012), Atmospheric Deathcore (D5)
post May 23 2020, 16:58:53
Post #1

Правь статус, ####!111
**************
Group: Металариец
Posts: 3,942
Releases: 14
From: Москва и МО
On Forums: 14 years 4 days
Thanks: 1152 time(s)
Russian Federation


(IMG:https://metalarea.org/images/audiocovers/2020_May/acov_tid337998_thumb.jpg)

*Artist: Kardashev
*Album: Progression [demo]
*Year: 2012
*Genre: Atmospheric Deathcore
*Country: United States (IMG:https://metalarea.org/forum/style_images/flags/United%20States.png)
*Format: mp3@CBR320kbps
*Size: 41MB

Tracklist:
1. Initiative 00:34
2. Tier 1 - Global Exploration 03:50
3. Tier 2 - Stellar Advancement 03:09
4. Tier 3 - Galactic Achievement 05:24
5. Pillars of Creation 04:02
******************************
Total playing time: 16:59



Extended info
Найдено на просторах Интернета


Technical info
(IMG:https://metalarea.org/images/spectrogram/2020_May/d6065a4016bb6985f02c3f60c4fbfe88.png)
Input File: 03 Tier 2 - Stellar Advancement.mp3
Channels : 2
Sample Rate : 44100
Precision : 16-bit
Duration : 00:03:08.90 = 8330534 samples = 14167.6 CDDA sectors
File Size : 7.95M
Bit Rate : 337k
Sample Encoding: MPEG audio (layer I, II or III)
Comments :
Title=Tier 2 - Stellar Advancement
Artist=Kardashev
Album=Progression (Demo)
Tracknumber=3
Year=2012



Register


Go to the top of the page
  Insert nick Quick quote
+Quote Post

Reply to this topicStart new topic
2 User(s) are reading this topic (2 Guests and 0 Anonymous Users)
0 Members:

 



- Lo-Fi Version Support form
Copyrights and abuse reports form
Time is now: 6th July 2020 - 07:37:57