Welcome Guest ( Log In | Register )

> Releases Upload / Добавление релизов

Добавить релиз тут / Click here to add release
Рекомендованные обменники / Recommended file shares

> Kardashev - Iota [single] (2014), Atmospheric Deathcore (D5)
post May 23 2020, 17:02:20
Post #1

Правь статус, ####!111
**************
Group: Металариец
Posts: 3,876
Releases: 14
From: Москва и МО
On Forums: 13 years 10 months
Thanks: 1121 time(s)
Russian Federation


(IMG:http://metalarea.org/images/audiocovers/2020_May/acov_tid337999_thumb.jpg)

*Artist: Kardashev
*Album: Iota [single]
*Year: 2014
*Genre: Atmospheric Deathcore
*Country: United States (IMG:http://metalarea.org/forum/style_images/flags/United%20States.png)
*Format: mp3@CBR320kbps
*Size: 18MB

Tracklist:
1. Iota 07:34
******************************
Total playing time: 7:34



Extended info
Найдено на просторах Интернета


Technical info
(IMG:http://metalarea.org/images/spectrogram/2020_May/b85bd4b58c690acec0096a64c6454e30.png)
Input File: 01 IOTA.mp3
Channels : 2
Sample Rate : 44100
Precision : 16-bit
Duration : 00:07:34.32 = 20035512 samples = 34074 CDDA sectors
File Size : 18.4M
Bit Rate : 325k
Sample Encoding: MPEG audio (layer I, II or III)
Comments :
Title=IOTA
Artist=Kardashev
Album=IOTA (Single)
Tracknumber=1
Year=2014



Register


Go to the top of the page
  Insert nick Quick quote
+Quote Post
 
Start new topic
Replies (1 - 1)
post May 24 2020, 15:48:23
Post #2

Правь статус, ####!111
**************
Group: Металариец
Posts: 3,876
Releases: 14
From: Москва и МО
On Forums: 13 years 10 months
Thanks: 1121 time(s)
Russian Federation


Недурной сингл, самый сок начинается с 5:30 или около того, когда фигачится финальный соляк.
Клип на песню:



Куда-то потерялась ссылка на мегу:

Register


Thanks:
Go to the top of the page
  Insert nick Quick quote
+Quote Post

Reply to this topicStart new topic
1 User(s) are reading this topic (1 Guests and 0 Anonymous Users)
0 Members:

 



- Lo-Fi Version Support form
Copyrights and abuse reports form
Time is now: 28th May 2020 - 08:45:59