Welcome Guest ( Log In | Register )

> Releases Upload / Добавление релизов

Добавить релиз тут / Click here to add release
Рекомендованные обменники / Recommended file shares

 
Reply to this topicStart new topic
> Moonthoth - Battlehymns [demo] (2020), Atmospheric Black Metal
post May 23 2020, 17:52:43
Post #1

MDM-Thrash Metal
**************
Group: Металариец
Posts: 9,522
Releases: 861
From: Одесса
On Forums: 12 years 9 months
Thanks: 22623 time(s)
Ukraine


(IMG:http://metalarea.org/images/audiocovers/2020_May/acov_tid338000_thumb.jpg)

*Artist: Moonthoth
*Album: Battlehymns [demo]
*Year: 2020
*Genre: Atmospheric Black Metal
*Country: Poland (IMG:http://metalarea.org/forum/style_images/flags/Poland.png)
*Format: mp3@CBR320kbps
*Size: 26MB

Tracklist:
1. Raven's Cry 02:11
2. Battlehymns 05:12
3. Blood Tale 03:12
******************************
Total playing time: 10:35




Extended info
Nocturnal Everything
See also: Blackmoon


Technical info
(IMG:http://metalarea.org/images/spectrogram/2020_May/2d88a00a33e950bc237f4c4f086adc41.png)
Input File: Moonthoth - Battlehymns - 02 Battlehymns.mp3
Channels : 2
Sample Rate : 44100
Precision : 16-bit
Duration : 00:05:12.10 = 13763698 samples = 23407.6 CDDA sectors
File Size : 12.5M
Bit Rate : 321k
Sample Encoding: MPEG audio (layer I, II or III)
Comments :
Title=Battlehymns
Artist=Moonthoth
Album=Battlehymns
Tracknumber=2
Year=2020



Register


Go to the top of the page
  Insert nick Quick quote
+Quote Post

Reply to this topicStart new topic
1 User(s) are reading this topic (1 Guests and 0 Anonymous Users)
0 Members:

 



- Lo-Fi Version Support form
Copyrights and abuse reports form
Time is now: 31st May 2020 - 04:56:18