Welcome Guest ( Log In | Register )

> Releases Upload / Добавление релизов

Добавить релиз тут / Click here to add release
Рекомендованные обменники / Recommended file shares

> Pointed Mutation - Engineering The Unhuman [ep] (2020), Death Metal
post May 23 2020, 18:12:34
Post #1

MDM-Thrash Metal
**************
Group: Металариец
Posts: 9,534
Releases: 865
From: Одесса
On Forums: 12 years 9 months
Thanks: 22652 time(s)
Ukraine


(IMG:http://metalarea.org/images/audiocovers/2020_May/acov_tid338001_thumb.jpg)

*Artist: Pointed Mutation
*Album: Engineering The Unhuman [ep]
*Year: 2020
*Genre: Death Metal
*Country: Iran (IMG:http://metalarea.org/forum/style_images/flags/Iran.png)
*Format: mp3@CBR320kbps
*Size: 26MB

Tracklist:
1. Prelude: Arcanum of Aeviternity 01:14 instrumental
2. Implosion 03:44
3. Fractal Equivalence 03:32
4. Engineering the Unhuman 03:14
******************************
Total playing time: 11:44




(IMG:http://metalarea.org/images/youtube.png)

Extended info
Ali Darani Bass (2019-present)
Sina Ghadimipour Drums (2019-present)
See also: Chaos Descent
Ali Zakeri Songwriting, Guitars, Lyrics (2019-present)
Saleh Rezaei Vocals, Lyrics (2019-present)
See also: Ekwon


Technical info
(IMG:http://metalarea.org/images/spectrogram/2020_May/0514b6e28ce7fb8406c9b393e60eab51.png)
Input File: 02. Implosion.mp3
Channels : 2
Sample Rate : 44100
Precision : 16-bit
Duration : 00:04:06.01 = 10849129 samples = 18450.9 CDDA sectors
File Size : 9.83M
Bit Rate : 320k
Sample Encoding: MPEG audio (layer I, II or III)
Comments :
Title=Implosion
Artist=Pointed Mutation
Album=Engineering the Unhuman
Tracknumber=02/04
Year=2020
Genre=Death Metal
Discnumber=1/1



Register


Go to the top of the page
  Insert nick Quick quote
+Quote Post
 
Start new topic
Replies (1 - 1)
post May 28 2020, 08:32:53
Post #2

MDM-Thrash Metal
**************
Group: Металариец
Posts: 9,534
Releases: 865
From: Одесса
On Forums: 12 years 9 months
Thanks: 22652 time(s)
Ukraine


Очень приличного качества материал!
Go to the top of the page
  Insert nick Quick quote
+Quote Post

Reply to this topicStart new topic
1 User(s) are reading this topic (1 Guests and 0 Anonymous Users)
0 Members:

 



- Lo-Fi Version Support form
Copyrights and abuse reports form
Time is now: 3rd June 2020 - 00:09:17