Welcome Guest ( Log In | Register )

> Releases Upload / Добавление релизов

Добавить релиз тут / Click here to add release
Рекомендованные обменники / Recommended file shares

 
Reply to this topicStart new topic
> Sickle Of Dust - To The Shores Of Sunrise (2020), Epic/Atmospheric Black Metal
post May 23 2020, 18:50:14
Post #1

Правь статус, ####!111
**************
Group: Металариец
Posts: 21,896
Releases: 15100
From: Г.Харьков
On Forums: 8 years 2 weeks
Thanks: 273926 time(s)
Unknown


(IMG:https://metalarea.org/images/audiocovers/2020_May/acov_tid338004_thumb.jpg)

*Artist: Sickle Of Dust
*Album: To The Shores Of Sunrise
*Year: 2020
*Genre: Epic/Atmospheric Black Metal
*Country: Russian Federation (IMG:https://metalarea.org/forum/style_images/flags/Russian%20Federation.png)
*Format: mp3@CBR320kbps
*Size: 94MB

Tracklist:
1. Over Desolate Lands 11:08
2. The Veteran 08:24
3. Castles on the Wind 08:40
4. To the Shores of Sunrise 12:52
******************************
Total playing time: 41:04




Extended info
Ash Everything (2016-present)
See also: Neutral


Technical info
(IMG:https://metalarea.org/images/spectrogram/2020_May/258cd8cbf0c45cd831cf4b38bed1d775.png)
Input File: 02. The Veteran.mp3
Channels : 2
Sample Rate : 44100
Precision : 16-bit
Duration : 00:08:24.48 = 22247612 samples = 37836.1 CDDA sectors
File Size : 20.4M
Bit Rate : 323k
Sample Encoding: MPEG audio (layer I, II or III)
Comments :
Title=The Veteran
Artist=Sickle of Dust
Album=To the Shores of Sunrise
Tracknumber=2},{"encoding_error":null
Year=2020
Genre=Black Metal



Register


Go to the top of the page
  Insert nick Quick quote
+Quote Post

Reply to this topicStart new topic
1 User(s) are reading this topic (1 Guests and 0 Anonymous Users)
0 Members:

 



- Lo-Fi Version Support form
Copyrights and abuse reports form
Time is now: 31st May 2020 - 05:29:41