Welcome Guest ( Log In | Register )

> Releases Upload / Добавление релизов

Добавить релиз тут / Click here to add release
Рекомендованные обменники / Recommended file shares

> Rattler - Alien Mind Order (2020), Death Metal (D)
post May 23 2020, 19:30:58
Post #1

Правь статус, ####!111
**************
Group: Металариец
Posts: 21,896
Releases: 15100
From: Г.Харьков
On Forums: 8 years 2 weeks
Thanks: 273919 time(s)
Unknown


(IMG:https://metalarea.org/images/audiocovers/2020_May/acov_tid338005_thumb.jpg)

*Artist: Rattler
*Album: Alien Mind Order
*Year: 2020
*Genre: Death Metal
*Country: Estonia (IMG:https://metalarea.org/forum/style_images/flags/Estonia.png)
*Format: mp3@CBR320kbps
*Size: 71MB

Tracklist:
1. Worship Yourself 05:41
2. Nagual 03:53
3. Alien Mind Order 03:26
4. Active Side of Infinity 04:26
5. Battle for Awareness 03:24
6. Frankensteins 04:16
7. Rattler Shaman 03:48
8. Kadamar 02:16
******************************
Total playing time: 31:10




Extended info
Creator Vocals, Guitars (1991-1998, 2014-present)
See also: ex-Misdeed
Daniil Modebadze Bass (2017-present)
See also: Riser
Madis Kaljurand Drums (2018-present)
See also: Intrepid, Nihilistikrypt
Simo Atso Guitars (2018-present)
See also: Intrepid, Loits, Tankist


Technical info
(IMG:https://metalarea.org/images/spectrogram/2020_May/98a0f760a790ca5eadba60ab8357feba.png)
Input File: 04. Active Side of Infinity.mp3
Channels : 2
Sample Rate : 44100
Precision : 16-bit
Duration : 00:04:25.94 = 11728130 samples = 19945.8 CDDA sectors
File Size : 10.6M
Bit Rate : 320k
Sample Encoding: MPEG audio (layer I, II or III)
Comments :
Title=Active Side of Infinity
Artist=Rattler
Album=Alien Mind Order
Tracknumber=4
Year=2020
Genre=Death



Register


Go to the top of the page
  Insert nick Quick quote
+Quote Post
 
Start new topic
Replies (1 - 1)
post May 24 2020, 01:02:42
Post #2

Сволочь обыкновенная
**************
Group: Металариец
Posts: 2,632
Releases: 146
From: Брест
On Forums: 12 years 1 month
Thanks: 3457 time(s)
Belarus


Удивительно, сколько лет прошло.) Легенда по сути. Реюнион 2015 прошел довольно тихо, притом что старье у них очень ламповое. Слушаю с удовольствием,но без восторгов пока, потом отпишусь


Go to the top of the page
  Insert nick Quick quote
+Quote Post

Reply to this topicStart new topic
1 User(s) are reading this topic (1 Guests and 0 Anonymous Users)
0 Members:

 



- Lo-Fi Version Support form
Copyrights and abuse reports form
Time is now: 31st May 2020 - 04:37:35