Welcome Guest ( Log In | Register )

> Releases Upload / Добавление релизов

Добавить релиз тут / Click here to add release
Рекомендованные обменники / Recommended file shares

> Vingþórr - Odr Mysteria [compilation] (2020), Black Metal/Ambient
post May 23 2020, 19:51:44
Post #1

Правь статус, ####!616
**************
Group: Металариец
Posts: 4,998
Releases: 3546
From: 55°35’N 38°08’E
On Forums: 11 years 10 months
Thanks: 66288 time(s)
Unknown


(IMG:http://metalarea.org/images/audiocovers/2020_May/acov_tid338006_thumb.jpg)

*Artist: Vingþórr
*Album: Odr Mysteria [compilation]
*Year: 2020
*Genre: Black Metal/Ambient
*Country: United States (IMG:http://metalarea.org/forum/style_images/flags/United%20States.png)
*Format: mp3@CBR320kbps
*Size: 124MB

Tracklist:
1.Ygg Shall Have 20:37
2.Odin thou now shalt see 05:25
3.Aura of Swords 06:55
4.Ancient Nightforest 06:56
5.Render the Hammer 06:48
6.Asa-Majesterium 06:55
******************************
Total playing time: 53:36

(IMG:http://metalarea.org/images/youtube.png)



Technical info
(IMG:http://metalarea.org/images/spectrogram/2020_May/5755b915c5cebc02f55e971d20c9ecf2.png)
Input File: 06 Asa-Majesterium.mp3
Channels : 2
Sample Rate : 44100
Precision : 16-bit
Duration : 00:06:55.09 = 18305249 samples = 31131.4 CDDA sectors
File Size : 16.9M
Bit Rate : 325k
Sample Encoding: MPEG audio (layer I, II or III)
Comments :
Title=Asa-Majesterium
Artist=Vingþórr
Album=Odr Mysteria
Tracknumber=6
Year=2020
Genre=Black Metal



Register


Go to the top of the page
  Insert nick Quick quote
+Quote Post
 
Start new topic
Replies (1 - 3)
post May 23 2020, 20:45:21
Post #2

Мегаманьяк
***********
Group: Металариец
Posts: 1,512
Releases: 14
From: Москва
On Forums: 12 years 1 month
Thanks: 963 time(s)
Antarctica


Неожиданная годнота для любителей HF и BBH.
Go to the top of the page
  Insert nick Quick quote
+Quote Post
post May 23 2020, 22:32:54
Post #3

Group: Дух
Posts: 4
Releases: 0
From: England, Manchester.
On Forums: 5 years 9 months
Thanks: 3 time(s)
United Kingdom


Thanks.
Go to the top of the page
  Insert nick Quick quote
+Quote Post
post May 24 2020, 15:25:53
Post #4

my church is black
*********
Group: Металариец
Posts: 953
Releases: 3
On Forums: 2 years 11 months
Thanks: 607 time(s)
Cape Verde


да ну чёто не особо на ББХ походит. сырец, но несколько другого пошиба.
Go to the top of the page
  Insert nick Quick quote
+Quote Post

Reply to this topicStart new topic
1 User(s) are reading this topic (1 Guests and 0 Anonymous Users)
0 Members:

 



- Lo-Fi Version Support form
Copyrights and abuse reports form
Time is now: 28th May 2020 - 09:36:44