Welcome Guest ( Log In | Register )

> Releases Upload / Добавление релизов

Добавить релиз тут / Click here to add release
Рекомендованные обменники / Recommended file shares

 
Reply to this topicStart new topic
> Aether Vitrum - Bellum Iustum (2012), Black Metal
post May 24 2020, 01:06:13
Post #1

Правь статус, ####!616
**************
Group: Металариец
Posts: 5,051
Releases: 3593
From: 55°35’N 38°08’E
On Forums: 11 years 10 months
Thanks: 66891 time(s)
Unknown


(IMG:http://metalarea.org/images/audiocovers/2020_May/acov_tid338007_thumb.jpg)

*Artist: Aether Vitrum
*Album: Bellum Iustum
*Year: 2012
*Genre: Black Metal
*Country: Germany (IMG:http://metalarea.org/forum/style_images/flags/Germany.png)
*Format: mp3@CBR320kbps
*Size: 78MB

Tracklist:
1.I 06:30
2.II 06:12
3.III 07:02
4.IV 06:10
5.V 07:56
******************************
Total playing time: 33:50

(IMG:http://metalarea.org/images/youtube.png)



Technical info
(IMG:http://metalarea.org/images/spectrogram/2020_May/7202e74d9d140442c59f966692e18cea.png)
Input File: 01 I.mp3
Channels : 2
Sample Rate : 44100
Precision : 16-bit
Duration : 00:06:30.09 = 17202749 samples = 29256.4 CDDA sectors
File Size : 15.8M
Bit Rate : 325k
Sample Encoding: MPEG audio (layer I, II or III)
Comments :
Title=I
Artist=Aether Vitrum
Album=Bellum Iustum
Tracknumber=1
Year=2012
Genre=Black Metal



Register


Go to the top of the page
  Insert nick Quick quote
+Quote Post

Reply to this topicStart new topic
1 User(s) are reading this topic (1 Guests and 0 Anonymous Users)
0 Members:

 



- Lo-Fi Version Support form
Copyrights and abuse reports form
Time is now: 3rd June 2020 - 01:09:40